<?xml version="1.0" standalone="no"?>
<!DOCTYPE svg PUBLIC "-//W3C//DTD SVG 1.1//EN" "http://www.w3.org/Graphics/SVG/1.1/DTD/svg11.dtd" >
<svg>
<metadata>
Created by FontForge 20090622 at Sat Oct  3 19:15:13 2020
 By deploy user
Digitized data copyright 2012-2016, The Mozilla Foundation and Telefonica S.A.
</metadata>
<defs>
<font id="FiraSans-Medium" horiz-adv-x="560" >
  <font-face 
    font-family="Fira Sans Medium"
    font-weight="500"
    font-stretch="normal"
    units-per-em="1000"
    panose-1="2 11 6 3 5 0 0 2 0 4"
    ascent="800"
    descent="-200"
    x-height="529"
    cap-height="691"
    bbox="-771 -354 1360 1152"
    underline-thickness="50"
    underline-position="-50"
    unicode-range="U+000D-U+FEFF"
  />
<missing-glyph horiz-adv-x="666" 
d="M543 1050v-1400h-420v1400h420zM489 998h-311v-1296h311v1296zM324 451q111 0 111 -115q0 -104 -95 -118v-45q0 -11 -7.5 -17.5t-17.5 -6.5t-17.5 6.5t-7.5 17.5v84q53 3 72 19.5t19 57.5q0 33 -13 51t-48 18q-29 0 -52 -11q-7 -3 -13 -3q-24 0 -24 23q0 19 29.5 29
t63.5 10zM315 120q15 0 25 -10t10 -25q0 -16 -10 -26.5t-25 -10.5t-25 10.5t-10 26.5q0 15 10 25t25 10z" />
    <glyph glyph-name="fi" unicode="fi" horiz-adv-x="588" 
d="M292 755q84 0 162 -38l-39 -85q-53 25 -112 25q-49 0 -67.5 -17.5t-18.5 -56.5v-54h294v-529h-128v437h-166v-437h-128v437h-83v92h83v56q0 77 50 123.5t153 46.5z" />
    <glyph glyph-name="fl" unicode="fl" horiz-adv-x="613" 
d="M578 93l27 -90q-43 -18 -91 -18q-60 0 -92 34.5t-32 100.5v525q-46 14 -95 14q-44 0 -61 -17t-17 -56v-57h113l-14 -92h-99v-437h-128v437h-83v92h83v58q0 75 49 121.5t142 46.5q55 0 119 -19l119 13v-620q0 -41 30 -41q15 0 30 5z" />
    <glyph glyph-name=".notdef" horiz-adv-x="666" 
d="M543 1050v-1400h-420v1400h420zM489 998h-311v-1296h311v1296zM324 451q111 0 111 -115q0 -104 -95 -118v-45q0 -11 -7.5 -17.5t-17.5 -6.5t-17.5 6.5t-7.5 17.5v84q53 3 72 19.5t19 57.5q0 33 -13 51t-48 18q-29 0 -52 -11q-7 -3 -13 -3q-24 0 -24 23q0 19 29.5 29
t63.5 10zM315 120q15 0 25 -10t10 -25q0 -16 -10 -26.5t-25 -10.5t-25 10.5t-10 26.5q0 15 10 25t25 10z" />
    <glyph glyph-name=".null" horiz-adv-x="0" 
 />
    <glyph glyph-name="nonmarkingreturn" horiz-adv-x="333" 
 />
    <glyph glyph-name="CR" unicode="&#xd;" horiz-adv-x="250" 
 />
    <glyph glyph-name="space" unicode=" " horiz-adv-x="250" 
 />
    <glyph glyph-name="exclam" unicode="!" horiz-adv-x="241" 
d="M188 691l-15 -447h-107l-16 447h138zM120 147q34 0 57.5 -23.5t23.5 -57.5q0 -33 -23.5 -57t-57.5 -24t-57.5 24t-23.5 57q0 34 23.5 57.5t57.5 23.5z" />
    <glyph glyph-name="quotedbl" unicode="&#x22;" horiz-adv-x="421" 
d="M71 420l-18 271h123l-17 -271h-88zM263 420l-18 271h123l-17 -271h-88z" />
    <glyph glyph-name="numbersign" unicode="#" horiz-adv-x="539" 
d="M524 443h-72l-27 -203h62v-88h-74l-20 -152h-107l20 152h-125l-20 -152h-106l20 152h-60v88h71l27 203h-61v89h73l18 141h107l-19 -141h125l19 141h107l-19 -141h61v-89zM318 240l27 203h-125l-27 -203h125z" />
    <glyph glyph-name="dollar" unicode="$" horiz-adv-x="541" 
d="M509 193q0 -77 -48 -129.5t-135 -68.5v-153h-98v148q-128 8 -211 90l68 75q73 -68 169 -68q55 0 89 26t34 73q0 42 -27 65.5t-105 47.5q-107 32 -154 79t-47 121q0 73 50.5 121.5t133.5 59.5v147h98v-147q94 -12 164 -79l-65 -73q-64 58 -147 58q-46 0 -74.5 -20.5
t-28.5 -58.5q0 -36 27.5 -57.5t109.5 -46.5q99 -31 148 -77t49 -133z" />
    <glyph glyph-name="percent" unicode="%" horiz-adv-x="844" 
d="M613 716l83 -53l-464 -699l-82 53zM207 685q74 0 122.5 -48t48.5 -127t-48.5 -127t-122.5 -48q-73 0 -121.5 48t-48.5 127t48.5 127t121.5 48zM207 605q-72 0 -72 -95t72 -95t72 95t-72 95zM637 335q74 0 122 -48t48 -127t-48 -127t-122 -48t-122.5 48t-48.5 127
t48.5 127t122.5 48zM637 255q-72 0 -72 -95t72 -95t72 95t-72 95z" />
    <glyph glyph-name="ampersand" unicode="&#x26;" horiz-adv-x="746" 
d="M308 706q91 0 145.5 -44t54.5 -112q0 -59 -35.5 -102.5t-100.5 -84.5l154 -145q33 72 53 156l111 -33q-37 -112 -91 -191l117 -106l-103 -59l-87 84q-90 -84 -220 -84q-106 0 -171.5 52.5t-65.5 138.5q0 61 34 106.5t104 90.5q-52 51 -74.5 88t-22.5 84q0 69 51.5 115
t146.5 46zM309 619q-35 0 -55 -20t-20 -54q0 -30 15.5 -54.5t51.5 -59.5q84 54 84 114q0 34 -20.5 54t-55.5 20zM280 304q-77 -52 -77 -122q0 -47 33.5 -74.5t89.5 -27.5q73 0 132 53z" />
    <glyph glyph-name="quotesingle" unicode="'" horiz-adv-x="230" 
d="M71 420l-18 271h123l-17 -271h-88z" />
    <glyph glyph-name="parenleft" unicode="(" horiz-adv-x="324" 
d="M218 852l82 -55q-74 -106 -107.5 -205.5t-33.5 -241.5q0 -141 33.5 -241t107.5 -206l-82 -55q-40 55 -59 83.5t-49.5 82.5t-44.5 97.5t-25.5 106.5t-11.5 132t11.5 132t25.5 106.5t44.5 97.5t49.5 82.5t59 83.5z" />
    <glyph glyph-name="parenright" unicode=")" horiz-adv-x="324" 
d="M106 852q49 -67 74 -106.5t56.5 -104t45.5 -135.5t14 -156t-14 -156t-45.5 -135.5t-56.5 -104t-74 -106.5l-81 55q73 106 107 206t34 241t-34 240.5t-107 206.5z" />
    <glyph glyph-name="asterisk" unicode="*" horiz-adv-x="444" 
d="M431 547l-147 -28l103 -108l-93 -68l-72 130l-71 -130l-93 67l101 110l-146 27l35 106l134 -63l-18 151h116l-18 -151l133 64z" />
    <glyph glyph-name="plus" unicode="+" horiz-adv-x="516" 
d="M313 535v-153h149v-101h-149v-153h-110v153h-148v101h148v153h110z" />
    <glyph glyph-name="comma" unicode="," horiz-adv-x="240" 
d="M119 147q35 0 58.5 -23t23.5 -58q0 -32 -26 -90l-65 -148h-78l41 172q-34 23 -34 67q0 34 23 57t57 23z" />
    <glyph glyph-name="hyphen" unicode="-" horiz-adv-x="405" 
d="M52 262v102h302v-102h-302z" />
    <glyph glyph-name="period" unicode="." horiz-adv-x="240" 
d="M119 147q34 0 58 -23.5t24 -57.5q0 -33 -24 -57t-58 -24q-33 0 -56.5 24t-23.5 57q0 34 23 57.5t57 23.5z" />
    <glyph glyph-name="slash" unicode="/" horiz-adv-x="520" 
d="M322 812l110 -25l-233 -895l-111 26z" />
    <glyph glyph-name="zero" unicode="0" horiz-adv-x="573" 
d="M286 685q118 0 179.5 -90t61.5 -259q0 -170 -61.5 -260.5t-179.5 -90.5t-179.5 90.5t-61.5 260.5q0 169 61.5 259t179.5 90zM286 588q-57 0 -83 -57.5t-26 -194.5q0 -138 26 -196t83 -58t83 57.5t26 196.5q0 138 -26 195t-83 57z" />
    <glyph glyph-name="one" unicode="1" horiz-adv-x="450" 
d="M355 673v-673h-126v544l-150 -91l-56 86l219 134h113z" />
    <glyph glyph-name="two" unicode="2" horiz-adv-x="507" 
d="M233 685q101 0 160 -54t59 -135q0 -83 -56 -162.5t-217 -232.5h288l-14 -101h-419v94q182 185 234 254.5t52 137.5q0 46 -26.5 72t-70.5 26q-39 0 -68.5 -16.5t-61.5 -54.5l-78 62q85 110 218 110z" />
    <glyph glyph-name="three" unicode="3" horiz-adv-x="510" 
d="M232 685q100 0 156.5 -49t56.5 -122q0 -61 -35 -101.5t-96 -56.5q67 -6 110 -48t43 -116q0 -89 -66 -148t-178 -59q-138 0 -218 97l71 68q65 -65 140 -65q54 0 86.5 30.5t32.5 82.5q0 58 -30.5 83t-90.5 25h-53l15 91h36q49 0 78.5 27t29.5 75q0 41 -27 64.5t-72 23.5
q-73 0 -135 -59l-65 71q91 86 211 86z" />
    <glyph glyph-name="four" unicode="4" horiz-adv-x="550" 
d="M525 252v-98h-81v-154h-125v154h-286v88l196 444l109 -41l-172 -393h154l13 169h111v-169h81z" />
    <glyph glyph-name="five" unicode="5" horiz-adv-x="520" 
d="M454 673l-15 -95h-252v-167q50 25 102 25q86 0 139.5 -58t53.5 -159q0 -104 -69 -169t-182 -65q-125 0 -212 95l73 68q58 -64 136 -64q57 0 89.5 35t32.5 100q0 125 -108 125q-42 0 -87 -23h-91v352h390z" />
    <glyph glyph-name="six" unicode="6" horiz-adv-x="550" 
d="M328 448q82 0 136 -58t54 -161q0 -106 -64.5 -175t-165.5 -69q-124 0 -183.5 87t-59.5 239q0 170 74.5 272t201.5 102q83 0 147 -43l-48 -79q-46 27 -97 27q-64 0 -102.5 -57.5t-43.5 -158.5q61 74 151 74zM288 80q50 0 75.5 39.5t25.5 107.5q0 69 -23.5 98.5t-68.5 29.5
q-68 0 -119 -69q2 -109 27.5 -157.5t82.5 -48.5z" />
    <glyph glyph-name="seven" unicode="7" horiz-adv-x="457" 
d="M434 673v-90l-249 -596l-117 38l234 549h-284v99h416z" />
    <glyph glyph-name="eight" unicode="8" horiz-adv-x="567" 
d="M393 361q138 -61 138 -180q0 -84 -68.5 -140t-181.5 -56q-111 0 -177.5 55t-66.5 139q0 116 128 170q-101 55 -101 159q0 80 63.5 128.5t156.5 48.5q94 0 157 -45.5t63 -126.5q0 -95 -111 -152zM284 595q-45 0 -70.5 -23t-25.5 -66q0 -40 24 -63.5t77 -42.5l19 -7
q39 24 55.5 50.5t16.5 63.5q0 41 -25 64.5t-71 23.5zM284 80q55 0 86 28t31 73q0 46 -27 72.5t-96 51.5l-31 11q-81 -44 -81 -133q0 -48 32 -75.5t86 -27.5z" />
    <glyph glyph-name="nine" unicode="9" horiz-adv-x="544" 
d="M269 685q114 0 175 -70.5t61 -190.5q0 -137 -43 -226t-126 -139.5t-223 -83.5l-27 91q132 35 200.5 90.5t81.5 151.5q-55 -70 -144 -70q-80 0 -134.5 60t-54.5 159q0 103 67 165.5t167 62.5zM259 331q68 0 115 69q1 103 -23.5 146.5t-81.5 43.5q-50 0 -78 -34t-28 -97
q0 -66 26.5 -97t69.5 -31z" />
    <glyph glyph-name="colon" unicode=":" horiz-adv-x="240" 
d="M119 503q34 0 58 -23.5t24 -57.5q0 -33 -24 -57t-58 -24q-33 0 -56.5 24t-23.5 57q0 34 23 57.5t57 23.5zM119 147q34 0 58 -23.5t24 -57.5q0 -33 -24 -57t-58 -24q-33 0 -56.5 24t-23.5 57q0 34 23 57.5t57 23.5z" />
    <glyph glyph-name="semicolon" unicode=";" horiz-adv-x="240" 
d="M119 503q34 0 58 -23.5t24 -57.5q0 -33 -24 -57t-58 -24q-33 0 -56.5 24t-23.5 57q0 34 23 57.5t57 23.5zM119 147q35 0 58.5 -23t23.5 -58q0 -32 -26 -90l-65 -148h-78l41 172q-34 23 -34 67q0 34 23 57t57 23z" />
    <glyph glyph-name="less" unicode="&#x3c;" horiz-adv-x="510" 
d="M427 565l42 -95l-321 -137l321 -135l-42 -97l-385 172v119z" />
    <glyph glyph-name="equal" unicode="=" horiz-adv-x="510" 
d="M55 381v102h401v-102h-401zM55 179v102h401v-102h-401z" />
    <glyph glyph-name="greater" unicode="&#x3e;" horiz-adv-x="510" 
d="M84 565l385 -173v-119l-385 -172l-42 97l320 135l-320 137z" />
    <glyph glyph-name="question" unicode="?" horiz-adv-x="471" 
d="M243 706q98 0 152.5 -47t54.5 -115q0 -38 -13.5 -67.5t-33.5 -46.5t-43.5 -34l-43.5 -31t-33.5 -36.5t-13.5 -50.5v-34h-119v39q0 47 17 82t41.5 54t49 34.5t41.5 35.5t17 45q0 33 -22.5 51.5t-61.5 18.5q-71 0 -127 -66l-83 65q87 103 221 103zM211 147q34 0 58 -23.5
t24 -57.5q0 -33 -24 -57t-58 -24q-33 0 -56.5 24t-23.5 57q0 34 23 57.5t57 23.5z" />
    <glyph glyph-name="at" unicode="@" horiz-adv-x="1020" 
d="M526 706q103 0 187 -32.5t137.5 -87t82.5 -125.5t29 -149q0 -134 -55.5 -220t-153.5 -86q-56 0 -88.5 30.5t-42.5 72.5q-43 -100 -143 -100q-86 0 -132 61t-46 162q0 125 60.5 195.5t165.5 70.5q86 0 166 -43v-252q0 -62 13.5 -86.5t42.5 -24.5q93 0 93 218
q0 141 -80 220t-236 79q-162 0 -255 -102t-93 -266q0 -166 91 -263.5t258 -97.5q96 0 194 35l32 -92q-109 -41 -227 -41q-212 0 -340 125t-128 334q0 201 131.5 333t336.5 132zM495 94q61 0 87 67v240q-27 12 -57 12q-106 0 -106 -181q0 -138 76 -138z" />
    <glyph glyph-name="A" unicode="A" horiz-adv-x="583" 
d="M447 0l-43 160h-229l-43 -160h-137l215 691h163l214 -691h-140zM201 260h176l-88 330z" />
    <glyph glyph-name="B" unicode="B" horiz-adv-x="613" 
d="M420 366q33 -6 58.5 -16.5t49.5 -29t37 -49.5t13 -72q0 -199 -289 -199h-208v691h181q286 0 286 -176q0 -61 -37 -99.5t-91 -49.5zM275 594h-62v-187h81q55 0 87 24.5t32 72.5q0 50 -33.5 70t-104.5 20zM290 99q73 0 111.5 22t38.5 83q0 111 -136 111h-91v-216h77z" />
    <glyph glyph-name="C" unicode="C" horiz-adv-x="568" 
d="M345 706q113 0 202 -73l-67 -78q-61 49 -128 49q-77 0 -123.5 -62t-46.5 -195q0 -130 46 -193t124 -63q66 0 141 56l62 -78q-82 -84 -208 -84q-138 0 -221 95t-83 267q0 169 85 264t217 95z" />
    <glyph glyph-name="D" unicode="D" horiz-adv-x="648" 
d="M251 691q59 0 107 -8t95.5 -30.5t79.5 -59.5t52 -99t20 -145q0 -100 -28.5 -171.5t-78.5 -108.5t-106 -53t-123 -16h-188v691h170zM274 592h-61v-493h65q42 0 73.5 11t58.5 37t41.5 77t14.5 125q0 75 -15 125t-43.5 75t-59.5 34t-74 9z" />
    <glyph glyph-name="E" unicode="E" horiz-adv-x="530" 
d="M482 691l-14 -98h-255v-193h222v-98h-222v-203h273v-99h-405v691h401z" />
    <glyph glyph-name="F" unicode="F" horiz-adv-x="489" 
d="M81 0v691h391l-14 -98h-245v-207h213v-98h-213v-288h-132z" />
    <glyph glyph-name="G" unicode="G" horiz-adv-x="638" 
d="M360 706q124 0 220 -81l-71 -74q-70 55 -145 55q-80 0 -131 -64t-51 -196q0 -138 40.5 -199t123.5 -61q63 0 110 27v180h-104l-14 98h248v-338q-112 -68 -238 -68q-148 0 -226.5 92t-78.5 269q0 169 90.5 264.5t226.5 95.5z" />
    <glyph glyph-name="H" unicode="H" horiz-adv-x="672" 
d="M459 0v309h-246v-309h-132v691h132v-277h246v277h133v-691h-133z" />
    <glyph glyph-name="I" unicode="I" horiz-adv-x="294" 
d="M213 691v-691h-132v691h132z" />
    <glyph glyph-name="J" unicode="J" horiz-adv-x="312" 
d="M235 691v-590q0 -58 -15 -102t-44.5 -73t-63 -47.5t-80.5 -33.5l-35 95q64 25 84.5 60.5t20.5 105.5v585h133z" />
    <glyph glyph-name="K" unicode="K" horiz-adv-x="613" 
d="M213 691v-691h-132v691h132zM601 691l-239 -313l258 -378h-157l-244 369l239 322h143z" />
    <glyph glyph-name="L" unicode="L" horiz-adv-x="506" 
d="M213 691v-583h277l-15 -108h-394v691h132z" />
    <glyph glyph-name="M" unicode="M" horiz-adv-x="782" 
d="M682 691l54 -691h-129l-18 289q-11 194 -9 282l-126 -496h-125l-134 497q6 -129 -4 -287l-17 -285h-128l55 691h170l123 -484l116 484h172z" />
    <glyph glyph-name="N" unicode="N" horiz-adv-x="672" 
d="M591 691v-691h-171l-237 559q18 -157 18 -277v-282h-120v691h167l241 -560q-18 114 -18 236v324h120z" />
    <glyph glyph-name="O" unicode="O" horiz-adv-x="691" 
d="M346 706q140 0 221 -94.5t81 -265.5q0 -170 -81 -265.5t-221 -95.5t-221.5 94.5t-81.5 265.5q0 169 81.5 265t221.5 96zM346 605q-164 0 -164 -260q0 -259 164 -259q163 0 163 260q0 135 -41.5 197t-121.5 62z" />
    <glyph glyph-name="P" unicode="P" horiz-adv-x="591" 
d="M285 691q133 0 206.5 -55t73.5 -165q0 -115 -74 -172.5t-197 -57.5h-81v-241h-132v691h204zM284 340q71 0 107 29.5t36 101.5q0 123 -143 123h-71v-254h71z" />
    <glyph glyph-name="Q" unicode="Q" horiz-adv-x="691" 
d="M487 42q110 0 197 -62l-82 -107q-58 59 -115.5 87t-147.5 28q-136 0 -216 93.5t-80 263.5q0 169 81.5 265t221.5 96t221 -94.5t81 -265.5q0 -218 -161 -304zM182 345q0 -259 164 -259q163 0 163 260q0 135 -41.5 197t-121.5 62q-164 0 -164 -260z" />
    <glyph glyph-name="R" unicode="R" horiz-adv-x="611" 
d="M450 0l-153 277h-84v-277h-132v691h206q274 0 274 -203q0 -69 -34 -114t-106 -73l181 -301h-152zM213 595v-223h82q128 0 128 116q0 56 -33.5 81.5t-105.5 25.5h-71z" />
    <glyph glyph-name="S" unicode="S" 
d="M280 706q135 0 228 -85l-65 -75q-72 59 -155 59q-48 0 -77.5 -21.5t-29.5 -60.5q0 -38 28 -59.5t114 -48.5q102 -32 153.5 -79.5t51.5 -138.5q0 -95 -70 -153.5t-192 -58.5q-152 0 -249 95l68 76q82 -69 178 -69q57 0 92 27t35 76q0 44 -28 68t-109 49q-110 34 -159 82
t-49 126q0 85 66 138t169 53z" />
    <glyph glyph-name="T" unicode="T" horiz-adv-x="530" 
d="M525 691l-14 -105h-180v-586h-133v586h-186v105h513z" />
    <glyph glyph-name="U" unicode="U" horiz-adv-x="656" 
d="M585 691v-465q0 -108 -67.5 -174.5t-190.5 -66.5q-124 0 -190 65.5t-66 175.5v465h132v-458q0 -145 124 -145q125 0 125 145v458h133z" />
    <glyph glyph-name="V" unicode="V" horiz-adv-x="564" 
d="M568 691l-205 -691h-157l-211 691h142l150 -574l146 574h135z" />
    <glyph glyph-name="W" unicode="W" horiz-adv-x="837" 
d="M821 691l-127 -691h-172l-105 551l-108 -551h-167l-125 691h131l88 -586l113 586h140l111 -586l96 586h125z" />
    <glyph glyph-name="X" unicode="X" horiz-adv-x="562" 
d="M358 373l205 -373h-147l-138 283l-137 -283h-141l200 368l-184 323h147l117 -239l122 239h141z" />
    <glyph glyph-name="Y" unicode="Y" horiz-adv-x="574" 
d="M576 691l-222 -429v-262h-134v261l-222 430h146l146 -321l146 321h140z" />
    <glyph glyph-name="Z" unicode="Z" horiz-adv-x="534" 
d="M496 691v-102l-319 -481h322l-14 -108h-462v101l325 485h-292v105h440z" />
    <glyph glyph-name="bracketleft" unicode="[" horiz-adv-x="323" 
d="M287 820v-100h-118v-741h118v-99h-239v940h239z" />
    <glyph glyph-name="backslash" unicode="\" horiz-adv-x="520" 
d="M198 812l234 -894l-111 -26l-233 895z" />
    <glyph glyph-name="bracketright" unicode="]" horiz-adv-x="323" 
d="M275 820v-940h-239v99h118v742h-118v99h239z" />
    <glyph glyph-name="asciicircum" unicode="^" horiz-adv-x="550" 
d="M333 842l189 -315h-129l-119 214l-116 -214h-130l189 315h116z" />
    <glyph glyph-name="underscore" unicode="_" horiz-adv-x="520" 
d="M13 -158v103h494v-103h-494z" />
    <glyph glyph-name="grave" unicode="`" horiz-adv-x="322" 
d="M82 820l210 -125l-37 -65l-225 90z" />
    <glyph glyph-name="a" unicode="a" horiz-adv-x="546" 
d="M468 140q0 -31 9.5 -45.5t30.5 -22.5l-27 -85q-88 8 -117 77q-52 -79 -158 -79q-79 0 -125 45t-46 118q0 86 62.5 131.5t178.5 45.5h66v30q0 51 -23.5 71.5t-75.5 20.5q-58 0 -140 -28l-30 87q99 38 192 38q203 0 203 -182v-222zM240 78q65 0 102 65v107h-53
q-124 0 -124 -92q0 -80 75 -80z" />
    <glyph glyph-name="b" unicode="b" horiz-adv-x="596" 
d="M351 544q92 0 144 -73.5t52 -205.5q0 -125 -56.5 -202.5t-152.5 -77.5q-85 0 -140 69l-8 -54h-113v741l128 14v-286q54 75 146 75zM303 81q110 0 110 184q0 100 -27 141.5t-76 41.5q-61 0 -105 -72v-234q37 -61 98 -61z" />
    <glyph glyph-name="c" unicode="c" horiz-adv-x="478" 
d="M290 544q100 0 172 -62l-57 -77q-51 38 -107 38q-119 0 -119 -181q0 -173 119 -173q48 0 107 38l57 -81q-75 -61 -171 -61q-115 0 -181.5 74t-66.5 201q0 128 67 206t180 78z" />
    <glyph glyph-name="d" unicode="d" horiz-adv-x="599" 
d="M394 755l128 -14v-741h-113l-9 67q-55 -82 -151 -82q-97 0 -149 75t-52 204q0 124 58 202t155 78q76 0 133 -57v268zM285 82q64 0 109 68v242q-46 56 -101 56q-51 0 -80.5 -45.5t-29.5 -137.5q0 -183 102 -183z" />
    <glyph glyph-name="e" unicode="e" horiz-adv-x="549" 
d="M511 277q0 -10 -3 -52h-332q12 -143 130 -143q64 0 132 47l53 -73q-88 -71 -196 -71q-121 0 -186.5 74t-65.5 202q0 124 62.5 203.5t172.5 79.5q111 0 172 -70.5t61 -196.5zM384 308v6q0 139 -103 139q-95 0 -105 -145h208z" />
    <glyph glyph-name="f" unicode="f" horiz-adv-x="347" 
d="M291 658q-38 0 -54.5 -17.5t-16.5 -55.5v-56h127l-14 -92h-113v-437h-128v437h-86v92h86v58q0 75 48.5 121.5t137.5 46.5q70 0 137 -31l-37 -86q-43 20 -87 20z" />
    <glyph glyph-name="g" unicode="g" horiz-adv-x="537" 
d="M505 603l32 -102q-51 -18 -153 -18q96 -43 96 -136q0 -79 -57.5 -128.5t-155.5 -49.5q-36 0 -63 8q-22 -15 -22 -39q0 -37 64 -37h81q87 0 140 -42t53 -108q0 -80 -68 -124.5t-196 -44.5q-135 0 -188 41t-53 125h115q0 -42 26 -59t102 -17q73 0 103 18t30 52
q0 30 -23 46.5t-67 16.5h-80q-75 0 -113 29t-38 73q0 60 62 98q-93 49 -93 149q0 86 61 138t158 52q59 -1 107 7.5t74 19.5t66 32zM260 457q-43 0 -67.5 -27.5t-24.5 -73.5q0 -48 25 -76t69 -28q46 0 70 27.5t24 77.5q0 100 -96 100z" />
    <glyph glyph-name="h" unicode="h" horiz-adv-x="581" 
d="M359 544q70 0 110 -43t40 -118v-383h-128v363q0 47 -16.5 66t-48.5 19q-60 0 -111 -79v-369h-128v740l128 13v-287q64 78 154 78z" />
    <glyph glyph-name="i" unicode="i" horiz-adv-x="282" 
d="M140 797q36 0 58.5 -22.5t22.5 -55.5t-22.5 -55t-58.5 -22q-35 0 -57.5 22t-22.5 55t22.5 55.5t57.5 22.5zM205 529v-529h-128v529h128z" />
    <glyph glyph-name="j" unicode="j" horiz-adv-x="281" 
d="M139 797q36 0 58.5 -22.5t22.5 -55.5t-22.5 -55t-58.5 -22q-35 0 -57.5 22t-22.5 55t22.5 55.5t57.5 22.5zM204 529v-482q0 -113 -46.5 -168.5t-146.5 -95.5l-41 93q58 27 82 59t24 104v490h128z" />
    <glyph glyph-name="k" unicode="k" horiz-adv-x="534" 
d="M205 755v-755h-128v741zM522 529l-176 -233l193 -296h-147l-182 289l177 240h135z" />
    <glyph glyph-name="l" unicode="l" horiz-adv-x="295" 
d="M202 -15q-61 0 -95.5 35.5t-34.5 100.5v620l128 14v-630q0 -37 30 -37q15 0 30 5l27 -90q-40 -18 -85 -18z" />
    <glyph glyph-name="m" unicode="m" horiz-adv-x="850" 
d="M638 544q64 0 102 -43.5t38 -117.5v-383h-128v363q0 85 -58 85q-31 0 -53.5 -19.5t-46.5 -60.5v-368h-128v363q0 85 -58 85q-32 0 -54.5 -19.5t-46.5 -60.5v-368h-128v529h111l10 -69q60 84 153 84q96 0 128 -89q65 89 159 89z" />
    <glyph glyph-name="n" unicode="n" horiz-adv-x="581" 
d="M359 544q71 0 110.5 -42.5t39.5 -118.5v-383h-128v363q0 47 -16.5 66t-48.5 19q-60 0 -111 -80v-368h-128v529h111l10 -69q65 84 161 84z" />
    <glyph glyph-name="o" unicode="o" horiz-adv-x="584" 
d="M293 544q117 0 182.5 -74.5t65.5 -204.5q0 -127 -66.5 -203.5t-182.5 -76.5q-117 0 -183 74.5t-66 205.5q0 126 67 202.5t183 76.5zM293 447q-115 0 -115 -182q0 -183 114 -183t114 183q0 182 -113 182z" />
    <glyph glyph-name="p" unicode="p" horiz-adv-x="596" 
d="M351 544q100 0 148 -73t48 -205q0 -125 -55.5 -203t-153.5 -78q-84 0 -133 58v-247l-128 -14v747h112l7 -65q61 80 155 80zM302 83q111 0 111 182q0 97 -25 140t-75 43q-64 0 -108 -72v-238q37 -55 97 -55z" />
    <glyph glyph-name="q" unicode="q" horiz-adv-x="599" 
d="M411 529h111v-747l-128 14v264q-55 -75 -145 -75q-97 0 -149 75t-52 204q0 124 58 202t155 78q84 0 143 -67zM285 82q64 0 109 68v242q-46 56 -100 56q-52 0 -81.5 -45.5t-29.5 -137.5q0 -183 102 -183z" />
    <glyph glyph-name="r" unicode="r" horiz-adv-x="394" 
d="M338 543q29 0 53 -7l-22 -124q-24 6 -47 6q-47 0 -74 -33.5t-43 -102.5v-282h-128v529h111l12 -104q19 57 55 87.5t83 30.5z" />
    <glyph glyph-name="s" unicode="s" horiz-adv-x="476" 
d="M244 544q107 0 188 -63l-50 -75q-68 43 -133 43q-38 0 -59 -14.5t-21 -38.5q0 -27 22 -42t89 -34q86 -23 127.5 -61t41.5 -106q0 -79 -64 -123.5t-159 -44.5q-127 0 -211 75l64 72q69 -52 144 -52q43 0 68.5 17t25.5 47q0 33 -22.5 49t-97.5 37q-157 43 -157 160
q0 67 56.5 110.5t147.5 43.5z" />
    <glyph glyph-name="t" unicode="t" horiz-adv-x="375" 
d="M335 107l45 -82q-56 -40 -133 -40q-159 2 -159 173v279h-83v92h83v117l128 15v-132h123l-13 -92h-110v-276q0 -39 13.5 -56t42.5 -17t63 19z" />
    <glyph glyph-name="u" unicode="u" horiz-adv-x="577" 
d="M500 529v-529h-111l-7 74q-58 -89 -162 -89q-71 0 -109.5 43.5t-38.5 120.5v380h128v-364q0 -45 15.5 -64t49.5 -19q61 0 107 75v372h128z" />
    <glyph glyph-name="v" unicode="v" horiz-adv-x="504" 
d="M502 529l-172 -529h-153l-175 529h139l113 -426l116 426h132z" />
    <glyph glyph-name="w" unicode="w" horiz-adv-x="734" 
d="M723 529l-115 -529h-160l-80 415l-82 -415h-157l-117 529h128l74 -435l92 435h131l84 -435l79 435h123z" />
    <glyph glyph-name="x" unicode="x" horiz-adv-x="500" 
d="M326 283l177 -283h-148l-109 210l-108 -210h-141l176 279l-158 250h146l90 -180l89 180h139z" />
    <glyph glyph-name="y" unicode="y" horiz-adv-x="506" 
d="M505 529l-172 -531q-32 -98 -97 -152.5t-178 -63.5l-13 93q76 12 110.5 39t58.5 86h-44l-168 529h136l115 -444l120 444h132z" />
    <glyph glyph-name="z" unicode="z" horiz-adv-x="449" 
d="M421 529v-92l-256 -337h261l-13 -100h-395v92l257 337h-235v100h381z" />
    <glyph glyph-name="braceleft" unicode="{" horiz-adv-x="323" 
d="M288 838v-92q-47 0 -65.5 -14.5t-18.5 -49.5v-210q0 -58 -22 -84t-69 -39q47 -12 69 -38t22 -83v-210q0 -35 19 -49.5t65 -14.5v-92q-115 0 -159.5 37t-44.5 120v199q0 44 -14.5 61.5t-52.5 17.5v105q38 0 52.5 18t14.5 62v199q0 83 44.5 120t159.5 37z" />
    <glyph glyph-name="bar" unicode="|" horiz-adv-x="388" 
d="M253 809v-913h-118v913h118z" />
    <glyph glyph-name="braceright" unicode="}" horiz-adv-x="323" 
d="M35 838q115 0 159.5 -37t44.5 -120v-199q0 -44 14.5 -62t53.5 -18v-105q-39 0 -53.5 -17.5t-14.5 -61.5v-199q0 -83 -44.5 -120t-159.5 -37v92q46 0 65 14.5t19 49.5v210q0 57 22 83t69 38q-47 13 -69 39t-22 84v210q0 35 -18.5 49.5t-65.5 14.5v92z" />
    <glyph glyph-name="asciitilde" unicode="~" horiz-adv-x="502" 
d="M330 240q-36 0 -67 15t-55 30.5t-42 15.5q-36 0 -70 -52l-71 36q57 113 150 113q45 0 94 -30t69 -30q37 0 70 48l69 -37q-55 -109 -147 -109z" />
    <glyph glyph-name="uni00A0" unicode="&#xa0;" horiz-adv-x="250" 
 />
    <glyph glyph-name="exclamdown" unicode="&#xa1;" horiz-adv-x="241" 
d="M121 503q33 0 56.5 -24t23.5 -57q0 -34 -23 -57.5t-57 -23.5t-58 23.5t-24 57.5q0 33 24 57t58 24zM174 241l16 -447h-138l16 447h106z" />
    <glyph glyph-name="cent" unicode="&#xa2;" horiz-adv-x="478" 
d="M405 127l57 -81q-54 -45 -124 -57v-147h-99v147q-92 17 -144 88.5t-52 182.5q0 113 52.5 188t144.5 92v148h98v-147q68 -12 124 -59l-57 -77q-51 38 -107 38q-119 0 -119 -181q0 -173 119 -173q48 0 107 38z" />
    <glyph glyph-name="sterling" unicode="&#xa3;" horiz-adv-x="531" 
d="M242 224q0 -48 -13 -76t-50 -48h313l-15 -100h-444v95q52 17 67.5 42.5t15.5 82.5v96h-67v72h67v99q0 88 53 143t149 55q120 0 193 -92l-80 -60q-42 53 -102 53q-87 0 -87 -99v-99h195v-72h-195v-92z" />
    <glyph glyph-name="currency" unicode="&#xa4;" 
d="M497 341q0 -68 -35 -120l76 -75l-63 -63l-78 76q-51 -31 -118 -31q-63 0 -116 32l-79 -77l-61 63l77 77q-34 51 -34 118q0 65 33 118l-76 79l63 63l78 -79q51 32 115 32q68 0 119 -31l78 78l62 -63l-76 -77q35 -52 35 -120zM281 219q53 0 81 32t28 91q0 58 -28 90t-81 32
t-80.5 -32t-27.5 -90t27.5 -90.5t80.5 -32.5z" />
    <glyph glyph-name="yen" unicode="&#xa5;" horiz-adv-x="554" 
d="M555 673l-183 -324h105v-73h-136v-80h136v-72h-136v-124h-128v124h-135v72h135v80h-135v73h104l-184 324h138l144 -288l142 288h133z" />
    <glyph glyph-name="brokenbar" unicode="&#xa6;" horiz-adv-x="388" 
d="M253 809v-366h-118v366h118zM253 262v-366h-118v366h118z" />
    <glyph glyph-name="section" unicode="&#xa7;" horiz-adv-x="542" 
d="M405 178q54 -39 54 -103q0 -69 -57.5 -111t-152.5 -42q-102 0 -181 53l44 78q61 -38 134 -38q41 0 65 14t24 39q0 30 -22 46.5t-99 40.5q-80 25 -117 57.5t-37 91.5q0 76 79 122q-54 38 -54 105q0 69 55.5 110.5t146.5 41.5q105 0 183 -55l-44 -75q-64 39 -134 39
q-84 0 -84 -55q0 -29 22.5 -46.5t96.5 -40.5q80 -26 117.5 -60t37.5 -90q0 -73 -77 -122zM262 242l72 -27q33 33 33 68q0 30 -20.5 47t-82.5 39q-28 9 -58 21q-30 -35 -30 -68q0 -31 18 -47t68 -33z" />
    <glyph glyph-name="dieresis" unicode="&#xa8;" horiz-adv-x="422" 
d="M100 785q29 0 49 -20t20 -49t-20 -49t-49 -20q-30 0 -50.5 20t-20.5 49t20.5 49t50.5 20zM321 785q30 0 50 -20t20 -49t-20 -49t-50 -20q-29 0 -49.5 20t-20.5 49t20.5 49t49.5 20z" />
    <glyph glyph-name="copyright" unicode="&#xa9;" horiz-adv-x="810" 
d="M406 758q138 0 232 -92t94 -233t-94 -232.5t-232 -91.5t-233 91.5t-95 232.5t95 233t233 92zM406 691q-108 0 -179 -72t-71 -186t71 -185t179 -71t178.5 71t70.5 185t-70.5 186t-178.5 72zM408 628q70 0 124 -46l-42 -55q-34 26 -74 26q-37 0 -59.5 -29t-22.5 -90
q0 -118 81 -118q43 0 82 31l39 -57q-55 -50 -127 -50q-78 0 -124.5 51t-46.5 143q0 90 48 142t122 52z" />
    <glyph glyph-name="ordfeminine" unicode="&#xaa;" horiz-adv-x="500" 
d="M252 527h46v17q0 35 -16.5 48t-57.5 13q-48 0 -111 -21l-28 78q81 29 158 29q172 0 172 -141v-154q0 -23 7 -33.5t23 -15.5l-25 -78q-72 6 -100 56q-42 -58 -127 -58q-63 0 -100.5 35t-37.5 90q0 65 51 100t146 35zM228 352q44 0 70 37v71h-34q-88 0 -88 -60
q0 -48 52 -48zM61 102h394v-102h-394v102z" />
    <glyph glyph-name="guillemotleft" unicode="&#xab;" horiz-adv-x="604" 
d="M228 547l78 -53l-132 -208l132 -209l-78 -52l-183 219v83zM481 547l78 -53l-132 -208l132 -209l-78 -52l-183 219v83z" />
    <glyph glyph-name="logicalnot" unicode="&#xac;" horiz-adv-x="517" 
d="M462 377v-251h-109v149h-298v102h407z" />
    <glyph glyph-name="uni00AD" unicode="&#xad;" horiz-adv-x="405" 
d="M52 262v102h302v-102h-302z" />
    <glyph glyph-name="registered" unicode="&#xae;" horiz-adv-x="639" 
d="M319 755q114 0 190 -76.5t76 -190.5q0 -113 -76 -188.5t-190 -75.5q-112 0 -188.5 75.5t-76.5 188.5t76.5 190t188.5 77zM319 283q88 0 143 57t55 148q0 92 -55 150t-143 58q-86 0 -141.5 -58t-55.5 -150q0 -91 55.5 -148t141.5 -57zM430 548q0 -54 -61 -77l74 -116h-75
l-59 104h-23v-104h-65v279h81q128 0 128 -86zM286 585v-74h29q49 0 49 38q0 36 -50 36h-28z" />
    <glyph glyph-name="macron" unicode="&#xaf;" horiz-adv-x="351" 
d="M321 661h-291v91h291v-91z" />
    <glyph glyph-name="degree" unicode="&#xb0;" horiz-adv-x="522" 
d="M218 375q-68 0 -119.5 45.5t-51.5 120.5t51.5 120t119.5 45q69 0 120.5 -45t51.5 -121q0 -75 -51.5 -120t-120.5 -45zM218 453q34 0 56 23t22 64t-22 64.5t-56 23.5t-55.5 -23t-21.5 -64t21.5 -64.5t55.5 -23.5z" />
    <glyph glyph-name="plusminus" unicode="&#xb1;" horiz-adv-x="517" 
d="M314 585v-153h149v-101h-149v-153h-110v153h-148v101h148v153h110zM58 0v102h401v-102h-401z" />
    <glyph glyph-name="uni00B2" unicode="&#xb2;" horiz-adv-x="400" 
d="M195 749q70 0 110 -35t40 -88q0 -48 -35.5 -94.5t-137.5 -133.5h182l-10 -77h-284v71q114 107 148 148t34 77q0 26 -15.5 40.5t-41.5 14.5q-44 0 -81 -43l-59 47q58 73 150 73z" />
    <glyph glyph-name="uni00B3" unicode="&#xb3;" horiz-adv-x="400" 
d="M198 749q69 0 107.5 -30.5t38.5 -77.5q0 -76 -90 -98q47 -4 76 -29.5t29 -72.5q0 -56 -45 -93.5t-123 -37.5q-94 0 -150 64l56 53q39 -40 88 -40q32 0 51 15.5t19 44.5q0 59 -73 59h-36l12 68h24q30 0 47 14t17 39q0 23 -16 35.5t-43 12.5q-44 0 -86 -36l-50 53
q61 57 147 57z" />
    <glyph glyph-name="acute" unicode="&#xb4;" horiz-adv-x="322" 
d="M240 820l52 -100l-226 -90l-36 65z" />
    <glyph glyph-name="uni00B5" unicode="&#xb5;" horiz-adv-x="585" 
d="M526 0l-118 -15q-16 35 -24 91q-49 -86 -121 -86q-61 0 -92 46q29 -64 29 -141v-99l-123 -13v746h128v-367q0 -74 63 -74q64 0 105 78v363h128v-348q0 -100 25 -181z" />
    <glyph glyph-name="paragraph" unicode="&#xb6;" horiz-adv-x="763" 
d="M332 691h305v-894l-113 -16v817h-102v-801l-113 -16v491q-115 4 -174 61t-59 149q0 99 68 154t188 55z" />
    <glyph glyph-name="periodcentered" unicode="&#xb7;" horiz-adv-x="240" 
d="M119 390q34 0 58 -23.5t24 -57.5q0 -33 -24 -57t-58 -24q-33 0 -56.5 24t-23.5 57q0 34 23 57.5t57 23.5z" />
    <glyph glyph-name="cedilla" unicode="&#xb8;" horiz-adv-x="300" 
d="M171 16v-68q99 -10 99 -92q0 -50 -38 -79.5t-99 -29.5q-63 0 -103 28l31 63q30 -16 63 -16q49 0 49 34q0 38 -91 38l15 122h74z" />
    <glyph glyph-name="uni00B9" unicode="&#xb9;" horiz-adv-x="400" 
d="M288 740v-419h-98v323l-95 -57l-44 67l148 86h89z" />
    <glyph glyph-name="ordmasculine" unicode="&#xba;" horiz-adv-x="500" 
d="M251 691q96 0 150 -56t54 -156q0 -96 -54.5 -154t-150.5 -58t-150.5 56.5t-54.5 156.5q0 96 55.5 153.5t150.5 57.5zM251 604q-83 0 -83 -124q0 -126 82 -126t82 125t-81 125zM50 0v102h401v-102h-401z" />
    <glyph glyph-name="guillemotright" unicode="&#xbb;" horiz-adv-x="598" 
d="M123 547l183 -220v-83l-183 -219l-78 52l131 209l-131 208zM371 547l183 -220v-83l-183 -219l-78 52l131 209l-131 208z" />
    <glyph glyph-name="onequarter" unicode="&#xbc;" horiz-adv-x="952" 
d="M642 755l77 -38l-409 -799l-77 38zM288 272h-98v323l-95 -57l-44 67l148 86h89v-419zM919 164v-74h-50v-90h-95l-1 90h-189v67l125 271l84 -31l-106 -233h87l15 99h80v-99h50z" />
    <glyph glyph-name="onehalf" unicode="&#xbd;" horiz-adv-x="952" 
d="M642 755l77 -38l-409 -799l-77 38zM288 691v-419h-98v323l-95 -57l-44 67l148 86h89zM747 428q70 0 110 -35t40 -88q0 -48 -35.5 -94.5t-137.5 -133.5h182l-10 -77h-284v71q114 107 148 148t34 77q0 26 -15.5 40.5t-41.5 14.5q-44 0 -81 -43l-59 47q58 73 150 73z" />
    <glyph glyph-name="threequarters" unicode="&#xbe;" horiz-adv-x="952" 
d="M642 755l77 -38l-409 -799l-77 38zM359 392q0 -56 -45 -93.5t-123 -37.5q-94 0 -150 64l56 53q39 -40 88 -40q32 0 51 15.5t19 44.5q0 59 -73 59h-36l12 68h24q30 0 47 14t17 39q0 23 -16 35.5t-43 12.5q-44 0 -86 -36l-50 53q61 57 147 57q69 0 107.5 -30.5t38.5 -77.5
q0 -76 -90 -98q47 -4 76 -29.5t29 -72.5zM919 164v-74h-50v-90h-95l-1 90h-189v67l125 271l84 -31l-106 -233h87l15 99h80v-99h50z" />
    <glyph glyph-name="questiondown" unicode="&#xbf;" horiz-adv-x="471" 
d="M260 341q-34 0 -57.5 23.5t-23.5 57.5q0 33 23.5 57t57.5 24q33 0 56.5 -24t23.5 -57q0 -34 -23 -57.5t-57 -23.5zM228 -219q-98 0 -152 47t-54 115q0 44 18.5 77t45 52t53 36t45 41.5t18.5 56.5v35h120v-40q0 -39 -12.5 -70t-31 -48.5t-40 -33.5t-40 -27.5t-31 -29
t-12.5 -39.5q0 -33 22.5 -51.5t61.5 -18.5q71 0 127 66l84 -65q-89 -103 -222 -103z" />
    <glyph glyph-name="Agrave" unicode="&#xc0;" horiz-adv-x="583" 
d="M417 819l-33 -66l-229 83l50 100zM447 0l-43 160h-229l-43 -160h-137l215 691h163l214 -691h-140zM201 260h176l-88 330z" />
    <glyph glyph-name="Aacute" unicode="&#xc1;" horiz-adv-x="583" 
d="M423 836l-229 -83l-33 66l212 117zM447 0l-43 160h-229l-43 -160h-137l215 691h163l214 -691h-140zM201 260h176l-88 330z" />
    <glyph glyph-name="Acircumflex" unicode="&#xc2;" horiz-adv-x="583" 
d="M291 839l-130 -82l-49 55l139 121h80l139 -121l-49 -55zM447 0l-43 160h-229l-43 -160h-137l215 691h163l214 -691h-140zM201 260h176l-88 330z" />
    <glyph glyph-name="Atilde" unicode="&#xc3;" horiz-adv-x="583" 
d="M235 817q-17 0 -28.5 -10.5t-24.5 -34.5l-69 34q44 104 120 104q33 0 67 -23t49 -23q26 0 53 43l68 -34q-43 -103 -120 -103q-31 0 -66 23.5t-49 23.5zM447 0l-43 160h-229l-43 -160h-137l215 691h163l214 -691h-140zM201 260h176l-88 330z" />
    <glyph glyph-name="Adieresis" unicode="&#xc4;" horiz-adv-x="583" 
d="M181 773q-30 0 -50.5 20t-20.5 49t20.5 49t50.5 20q29 0 49 -20t20 -49t-20 -49t-49 -20zM402 773q-29 0 -49.5 20t-20.5 49t20.5 49t49.5 20q30 0 50 -20t20 -49t-20 -49t-50 -20zM447 0l-43 160h-229l-43 -160h-137l215 691h163l214 -691h-140zM201 260h176l-88 330z
" />
    <glyph glyph-name="Aring" unicode="&#xc5;" horiz-adv-x="583" 
d="M292 739q-57 0 -92.5 35t-35.5 85q0 51 35.5 85.5t92.5 34.5t92 -34.5t35 -85.5q0 -50 -35.5 -85t-91.5 -35zM292 912q-23 0 -36 -14t-13 -39q0 -52 49 -52q22 0 35 13.5t13 38.5t-13 39t-35 14zM447 0l-43 160h-229l-43 -160h-137l215 691h163l214 -691h-140zM201 260
h176l-88 330z" />
    <glyph glyph-name="AE" unicode="&#xc6;" horiz-adv-x="832" 
d="M560 99h230v-99h-339l-32 160h-240l-57 -160h-140l273 691h496l-15 -98h-288l44 -194h250v-98h-228zM214 260h185l-67 331z" />
    <glyph glyph-name="Ccedilla" unicode="&#xc7;" horiz-adv-x="568" 
d="M555 69q-69 -71 -175 -82v-39q99 -10 99 -92q0 -50 -38 -79.5t-99 -29.5q-63 0 -103 28l31 63q30 -16 63 -16q49 0 49 34q0 38 -91 38l12 94q-119 15 -189.5 108t-70.5 251q0 169 85 264t217 95q113 0 202 -73l-67 -78q-61 49 -128 49q-77 0 -123.5 -62t-46.5 -195
q0 -130 46 -193t124 -63q66 0 141 56z" />
    <glyph glyph-name="Egrave" unicode="&#xc8;" horiz-adv-x="530" 
d="M197 936l212 -117l-33 -66l-229 83zM482 691l-14 -98h-255v-193h222v-98h-222v-203h273v-99h-405v691h401z" />
    <glyph glyph-name="Eacute" unicode="&#xc9;" horiz-adv-x="530" 
d="M365 936l50 -100l-229 -83l-33 66zM482 691l-14 -98h-255v-193h222v-98h-222v-203h273v-99h-405v691h401z" />
    <glyph glyph-name="Ecircumflex" unicode="&#xca;" horiz-adv-x="530" 
d="M153 757l-49 55l139 121h80l139 -121l-49 -55l-130 82zM482 691l-14 -98h-255v-193h222v-98h-222v-203h273v-99h-405v691h401z" />
    <glyph glyph-name="Edieresis" unicode="&#xcb;" horiz-adv-x="530" 
d="M173 911q29 0 49 -20t20 -49t-20 -49t-49 -20q-30 0 -50.5 20t-20.5 49t20.5 49t50.5 20zM394 911q30 0 50 -20t20 -49t-20 -49t-50 -20q-29 0 -49.5 20t-20.5 49t20.5 49t49.5 20zM482 691l-14 -98h-255v-193h222v-98h-222v-203h273v-99h-405v691h401z" />
    <glyph glyph-name="Igrave" unicode="&#xcc;" horiz-adv-x="294" 
d="M60 936l212 -117l-33 -66l-229 83zM213 691v-691h-132v691h132z" />
    <glyph glyph-name="Iacute" unicode="&#xcd;" horiz-adv-x="294" 
d="M228 936l50 -100l-229 -83l-33 66zM213 691v-691h-132v691h132z" />
    <glyph glyph-name="Icircumflex" unicode="&#xce;" horiz-adv-x="294" 
d="M16 757l-49 55l139 121h80l139 -121l-49 -55l-130 82zM213 691v-691h-132v691h132z" />
    <glyph glyph-name="Idieresis" unicode="&#xcf;" horiz-adv-x="294" 
d="M36 911q29 0 49 -20t20 -49t-20 -49t-49 -20q-30 0 -50.5 20t-20.5 49t20.5 49t50.5 20zM257 911q30 0 50 -20t20 -49t-20 -49t-50 -20q-29 0 -49.5 20t-20.5 49t20.5 49t49.5 20zM213 691v-691h-132v691h132z" />
    <glyph glyph-name="Eth" unicode="&#xd0;" horiz-adv-x="661" 
d="M264 691q59 0 107 -8t95.5 -30.5t79.5 -59.5t52 -99t20 -145q0 -100 -28.5 -171.5t-78.5 -108.5t-106 -53t-123 -16h-188v310h-77v86h77v295h170zM291 99q42 0 73.5 11t58.5 37t41.5 77t14.5 125q0 75 -15 125t-43.5 75t-59.5 34t-74 9h-61v-196h145v-86h-145v-211h65z
" />
    <glyph glyph-name="Ntilde" unicode="&#xd1;" horiz-adv-x="672" 
d="M402 770q-31 0 -66 23.5t-49 23.5q-17 0 -28.5 -10.5t-24.5 -34.5l-69 34q44 104 120 104q33 0 67.5 -23t48.5 -23q26 0 53 43l68 -34q-43 -103 -120 -103zM591 691v-691h-171l-237 559q18 -157 18 -277v-282h-120v691h167l241 -560q-18 114 -18 236v324h120z" />
    <glyph glyph-name="Ograve" unicode="&#xd2;" horiz-adv-x="691" 
d="M259 936l212 -117l-33 -66l-229 83zM346 706q140 0 221 -94.5t81 -265.5q0 -170 -81 -265.5t-221 -95.5t-221.5 94.5t-81.5 265.5q0 169 81.5 265t221.5 96zM346 605q-164 0 -164 -260q0 -259 164 -259q163 0 163 260q0 135 -41.5 197t-121.5 62z" />
    <glyph glyph-name="Oacute" unicode="&#xd3;" horiz-adv-x="691" 
d="M427 936l50 -100l-229 -83l-33 66zM346 706q140 0 221 -94.5t81 -265.5q0 -170 -81 -265.5t-221 -95.5t-221.5 94.5t-81.5 265.5q0 169 81.5 265t221.5 96zM346 605q-164 0 -164 -260q0 -259 164 -259q163 0 163 260q0 135 -41.5 197t-121.5 62z" />
    <glyph glyph-name="Ocircumflex" unicode="&#xd4;" horiz-adv-x="691" 
d="M215 757l-49 55l139 121h80l139 -121l-49 -55l-130 82zM346 706q140 0 221 -94.5t81 -265.5q0 -170 -81 -265.5t-221 -95.5t-221.5 94.5t-81.5 265.5q0 169 81.5 265t221.5 96zM346 605q-164 0 -164 -260q0 -259 164 -259q163 0 163 260q0 135 -41.5 197t-121.5 62z" />
    <glyph glyph-name="Otilde" unicode="&#xd5;" horiz-adv-x="691" 
d="M404 770q-31 0 -66 23.5t-49 23.5q-17 0 -28.5 -10.5t-24.5 -34.5l-69 34q44 104 120 104q33 0 67 -23t49 -23q26 0 53 43l68 -34q-43 -103 -120 -103zM346 706q140 0 221 -94.5t81 -265.5q0 -170 -81 -265.5t-221 -95.5t-221.5 94.5t-81.5 265.5q0 169 81.5 265
t221.5 96zM346 605q-164 0 -164 -260q0 -259 164 -259q163 0 163 260q0 135 -41.5 197t-121.5 62z" />
    <glyph glyph-name="Odieresis" unicode="&#xd6;" horiz-adv-x="691" 
d="M235 911q29 0 49 -20t20 -49t-20 -49t-49 -20q-30 0 -50.5 20t-20.5 49t20.5 49t50.5 20zM456 911q30 0 50 -20t20 -49t-20 -49t-50 -20q-29 0 -49.5 20t-20.5 49t20.5 49t49.5 20zM346 706q140 0 221 -94.5t81 -265.5q0 -170 -81 -265.5t-221 -95.5t-221.5 94.5
t-81.5 265.5q0 169 81.5 265t221.5 96zM346 605q-164 0 -164 -260q0 -259 164 -259q163 0 163 260q0 135 -41.5 197t-121.5 62z" />
    <glyph glyph-name="multiply" unicode="&#xd7;" horiz-adv-x="510" 
d="M374 499l73 -73l-118 -117l118 -121l-73 -73l-117 122l-121 -122l-73 73l118 116l-118 122l73 73l117 -123z" />
    <glyph glyph-name="Oslash" unicode="&#xd8;" horiz-adv-x="691" 
d="M502 667q146 -86 146 -321q0 -170 -81 -265.5t-221 -95.5q-26 0 -58 5l-36 -121l-103 27l41 128q-147 87 -147 321q0 169 81.5 265t221.5 96q32 0 56 -4l37 122l104 -28zM346 605q-164 0 -164 -260q0 -166 58 -222l144 479q-18 3 -38 3zM346 86q163 0 163 260
q0 170 -59 224l-143 -481q18 -3 39 -3z" />
    <glyph glyph-name="Ugrave" unicode="&#xd9;" horiz-adv-x="656" 
d="M241 936l212 -117l-33 -66l-229 83zM585 691v-465q0 -108 -67.5 -174.5t-190.5 -66.5q-124 0 -190 65.5t-66 175.5v465h132v-458q0 -145 124 -145q125 0 125 145v458h133z" />
    <glyph glyph-name="Uacute" unicode="&#xda;" horiz-adv-x="656" 
d="M409 936l50 -100l-229 -83l-33 66zM585 691v-465q0 -108 -67.5 -174.5t-190.5 -66.5q-124 0 -190 65.5t-66 175.5v465h132v-458q0 -145 124 -145q125 0 125 145v458h133z" />
    <glyph glyph-name="Ucircumflex" unicode="&#xdb;" horiz-adv-x="656" 
d="M197 757l-49 55l139 121h80l139 -121l-49 -55l-130 82zM585 691v-465q0 -108 -67.5 -174.5t-190.5 -66.5q-124 0 -190 65.5t-66 175.5v465h132v-458q0 -145 124 -145q125 0 125 145v458h133z" />
    <glyph glyph-name="Udieresis" unicode="&#xdc;" horiz-adv-x="656" 
d="M217 911q29 0 49 -20t20 -49t-20 -49t-49 -20q-30 0 -50.5 20t-20.5 49t20.5 49t50.5 20zM438 911q30 0 50 -20t20 -49t-20 -49t-50 -20q-29 0 -49.5 20t-20.5 49t20.5 49t49.5 20zM585 691v-465q0 -108 -67.5 -174.5t-190.5 -66.5q-124 0 -190 65.5t-66 175.5v465h132
v-458q0 -145 124 -145q125 0 125 145v458h133z" />
    <glyph glyph-name="Yacute" unicode="&#xdd;" horiz-adv-x="574" 
d="M368 936l50 -100l-229 -83l-33 66zM576 691l-222 -429v-262h-134v261l-222 430h146l146 -321l146 321h140z" />
    <glyph glyph-name="Thorn" unicode="&#xde;" horiz-adv-x="591" 
d="M285 578q134 0 207 -55.5t73 -167.5q0 -118 -74 -176.5t-197 -58.5h-81v-120h-132v691h132v-113h72zM284 219q71 0 107 30.5t36 105.5q0 126 -143 126h-71v-262h71z" />
    <glyph glyph-name="germandbls" unicode="&#xdf;" horiz-adv-x="600" 
d="M297 755q90 0 142.5 -42.5t52.5 -104.5q0 -35 -16.5 -63t-36.5 -42.5t-36.5 -34t-16.5 -39.5q0 -21 19 -40.5t46.5 -37.5t55 -40.5t46.5 -60t19 -86.5q0 -82 -55 -130.5t-136 -48.5q-63 0 -111 25l38 88q23 -13 58 -13q34 0 54 21t20 60q0 33 -17.5 58.5t-42 43.5l-49 36
t-42 45.5t-17.5 62.5q0 34 15.5 59t33.5 38t33.5 35t15.5 51q0 31 -21 48.5t-54 17.5q-90 0 -90 -123v-538h-128v536q0 104 57 161.5t163 57.5z" />
    <glyph glyph-name="agrave" unicode="&#xe0;" horiz-adv-x="546" 
d="M407 695l-37 -65l-225 90l52 100zM468 140q0 -31 9.5 -45.5t30.5 -22.5l-27 -85q-88 8 -117 77q-52 -79 -158 -79q-79 0 -125 45t-46 118q0 86 62.5 131.5t178.5 45.5h66v30q0 51 -23.5 71.5t-75.5 20.5q-58 0 -140 -28l-30 87q99 38 192 38q203 0 203 -182v-222zM240 78
q65 0 102 65v107h-53q-124 0 -124 -92q0 -80 75 -80z" />
    <glyph glyph-name="aacute" unicode="&#xe1;" horiz-adv-x="546" 
d="M394 720l-226 -90l-36 65l210 125zM468 140q0 -31 9.5 -45.5t30.5 -22.5l-27 -85q-88 8 -117 77q-52 -79 -158 -79q-79 0 -125 45t-46 118q0 86 62.5 131.5t178.5 45.5h66v30q0 51 -23.5 71.5t-75.5 20.5q-58 0 -140 -28l-30 87q99 38 192 38q203 0 203 -182v-222z
M240 78q65 0 102 65v107h-53q-124 0 -124 -92q0 -80 75 -80z" />
    <glyph glyph-name="acircumflex" unicode="&#xe2;" horiz-adv-x="546" 
d="M266 715l-130 -88l-49 55l138 126h81l139 -126l-49 -55zM468 140q0 -31 9.5 -45.5t30.5 -22.5l-27 -85q-88 8 -117 77q-52 -79 -158 -79q-79 0 -125 45t-46 118q0 86 62.5 131.5t178.5 45.5h66v30q0 51 -23.5 71.5t-75.5 20.5q-58 0 -140 -28l-30 87q99 38 192 38
q203 0 203 -182v-222zM240 78q65 0 102 65v107h-53q-124 0 -124 -92q0 -80 75 -80z" />
    <glyph glyph-name="atilde" unicode="&#xe3;" horiz-adv-x="546" 
d="M209 691q-17 0 -28.5 -10.5t-24.5 -34.5l-69 34q44 104 120 104q33 0 67 -23t49 -23q26 0 53 43l68 -34q-43 -103 -120 -103q-31 0 -66 23.5t-49 23.5zM468 140q0 -31 9.5 -45.5t30.5 -22.5l-27 -85q-88 8 -117 77q-52 -79 -158 -79q-79 0 -125 45t-46 118
q0 86 62.5 131.5t178.5 45.5h66v30q0 51 -23.5 71.5t-75.5 20.5q-58 0 -140 -28l-30 87q99 38 192 38q203 0 203 -182v-222zM240 78q65 0 102 65v107h-53q-124 0 -124 -92q0 -80 75 -80z" />
    <glyph glyph-name="adieresis" unicode="&#xe4;" horiz-adv-x="546" 
d="M155 647q-30 0 -50.5 20t-20.5 49t20.5 49t50.5 20q29 0 49 -20t20 -49t-20 -49t-49 -20zM376 647q-29 0 -49.5 20t-20.5 49t20.5 49t49.5 20q30 0 50 -20t20 -49t-20 -49t-50 -20zM468 140q0 -31 9.5 -45.5t30.5 -22.5l-27 -85q-88 8 -117 77q-52 -79 -158 -79
q-79 0 -125 45t-46 118q0 86 62.5 131.5t178.5 45.5h66v30q0 51 -23.5 71.5t-75.5 20.5q-58 0 -140 -28l-30 87q99 38 192 38q203 0 203 -182v-222zM240 78q65 0 102 65v107h-53q-124 0 -124 -92q0 -80 75 -80z" />
    <glyph glyph-name="aring" unicode="&#xe5;" horiz-adv-x="546" 
d="M266 613q-57 0 -92.5 35t-35.5 85q0 51 35.5 85.5t92.5 34.5t92 -34.5t35 -85.5q0 -50 -35.5 -85t-91.5 -35zM266 786q-23 0 -36 -14t-13 -39q0 -52 49 -52q22 0 35 13.5t13 38.5t-13 39t-35 14zM468 140q0 -31 9.5 -45.5t30.5 -22.5l-27 -85q-88 8 -117 77
q-52 -79 -158 -79q-79 0 -125 45t-46 118q0 86 62.5 131.5t178.5 45.5h66v30q0 51 -23.5 71.5t-75.5 20.5q-58 0 -140 -28l-30 87q99 38 192 38q203 0 203 -182v-222zM240 78q65 0 102 65v107h-53q-124 0 -124 -92q0 -80 75 -80z" />
    <glyph glyph-name="ae" unicode="&#xe6;" horiz-adv-x="852" 
d="M814 277q0 -31 -3 -52h-331q12 -143 129 -143q64 0 132 47l54 -73q-90 -71 -197 -71q-134 0 -201 93q-66 -93 -188 -93q-80 0 -127 45t-47 118q0 86 63.5 131.5t181.5 45.5h67v30q0 50 -23.5 70.5t-75.5 20.5q-57 0 -141 -28l-29 88q99 38 191 38q112 0 161 -74
q60 74 160 74q104 0 164 -71t60 -196zM688 308v6q-2 139 -104 139q-94 0 -105 -145h209zM246 78q65 0 115 77q-11 40 -13 89v4h-53q-124 0 -124 -92q0 -78 75 -78z" />
    <glyph glyph-name="ccedilla" unicode="&#xe7;" horiz-adv-x="478" 
d="M462 46q-65 -53 -145 -60v-38q99 -10 99 -92q0 -50 -38 -79.5t-99 -29.5q-63 0 -103 28l31 63q30 -16 63 -16q49 0 49 34q0 38 -91 38l12 95q-93 17 -145 88.5t-52 182.5q0 128 67 206t180 78q100 0 172 -62l-57 -77q-51 38 -107 38q-119 0 -119 -181q0 -173 119 -173
q48 0 107 38z" />
    <glyph glyph-name="egrave" unicode="&#xe8;" horiz-adv-x="549" 
d="M422 695l-37 -65l-225 90l52 100zM511 277q0 -10 -3 -52h-332q12 -143 130 -143q64 0 132 47l53 -73q-88 -71 -196 -71q-121 0 -186.5 74t-65.5 202q0 124 62.5 203.5t172.5 79.5q111 0 172 -70.5t61 -196.5zM384 308v6q0 139 -103 139q-95 0 -105 -145h208z" />
    <glyph glyph-name="eacute" unicode="&#xe9;" horiz-adv-x="549" 
d="M409 720l-226 -90l-36 65l210 125zM511 277q0 -10 -3 -52h-332q12 -143 130 -143q64 0 132 47l53 -73q-88 -71 -196 -71q-121 0 -186.5 74t-65.5 202q0 124 62.5 203.5t172.5 79.5q111 0 172 -70.5t61 -196.5zM384 308v6q0 139 -103 139q-95 0 -105 -145h208z" />
    <glyph glyph-name="ecircumflex" unicode="&#xea;" horiz-adv-x="549" 
d="M281 715l-130 -88l-49 55l138 126h81l139 -126l-49 -55zM511 277q0 -10 -3 -52h-332q12 -143 130 -143q64 0 132 47l53 -73q-88 -71 -196 -71q-121 0 -186.5 74t-65.5 202q0 124 62.5 203.5t172.5 79.5q111 0 172 -70.5t61 -196.5zM384 308v6q0 139 -103 139
q-95 0 -105 -145h208z" />
    <glyph glyph-name="edieresis" unicode="&#xeb;" horiz-adv-x="549" 
d="M170 647q-30 0 -50.5 20t-20.5 49t20.5 49t50.5 20q29 0 49 -20t20 -49t-20 -49t-49 -20zM391 647q-29 0 -49.5 20t-20.5 49t20.5 49t49.5 20q30 0 50 -20t20 -49t-20 -49t-50 -20zM511 277q0 -10 -3 -52h-332q12 -143 130 -143q64 0 132 47l53 -73q-88 -71 -196 -71
q-121 0 -186.5 74t-65.5 202q0 124 62.5 203.5t172.5 79.5q111 0 172 -70.5t61 -196.5zM384 308v6q0 139 -103 139q-95 0 -105 -145h208z" />
    <glyph glyph-name="igrave" unicode="&#xec;" horiz-adv-x="282" 
d="M72 820l210 -125l-37 -65l-225 90zM205 529v-529h-128v529h128z" />
    <glyph glyph-name="iacute" unicode="&#xed;" horiz-adv-x="282" 
d="M217 820l52 -100l-226 -90l-36 65zM205 529v-529h-128v529h128z" />
    <glyph glyph-name="icircumflex" unicode="&#xee;" horiz-adv-x="282" 
d="M11 627l-49 55l138 126h81l139 -126l-49 -55l-130 88zM205 529v-529h-128v529h128z" />
    <glyph glyph-name="idieresis" unicode="&#xef;" horiz-adv-x="282" 
d="M30 785q29 0 49 -20t20 -49t-20 -49t-49 -20q-30 0 -50.5 20t-20.5 49t20.5 49t50.5 20zM251 785q30 0 50 -20t20 -49t-20 -49t-50 -20q-29 0 -49.5 20t-20.5 49t20.5 49t49.5 20zM205 529v-529h-128v529h128z" />
    <glyph glyph-name="eth" unicode="&#xf0;" horiz-adv-x="575" 
d="M349 668q96 -70 136.5 -165.5t40.5 -231.5q0 -127 -66.5 -206.5t-178.5 -79.5q-103 0 -170.5 67t-67.5 182q0 101 56 172t149 71q83 0 139 -56q-26 107 -110 172l-62 -61l-83 39l64 68q-48 17 -101 27l26 88q81 -14 148 -42l71 76l69 -60zM281 81q55 0 85 45.5t30 134.5
q0 12 -0.5 33.5t-0.5 31.5q-44 58 -117 58q-104 0 -104 -146q0 -78 28.5 -117.5t78.5 -39.5z" />
    <glyph glyph-name="ntilde" unicode="&#xf1;" horiz-adv-x="581" 
d="M239 691q-17 0 -28.5 -10.5t-24.5 -34.5l-69 34q44 104 120 104q33 0 67 -23t49 -23q26 0 53 43l68 -34q-43 -103 -120 -103q-31 0 -66 23.5t-49 23.5zM359 544q71 0 110.5 -42.5t39.5 -118.5v-383h-128v363q0 47 -16.5 66t-48.5 19q-60 0 -111 -80v-368h-128v529h111
l10 -69q65 84 161 84z" />
    <glyph glyph-name="ograve" unicode="&#xf2;" horiz-adv-x="584" 
d="M223 820l210 -125l-37 -65l-225 90zM293 544q117 0 182.5 -74.5t65.5 -204.5q0 -127 -66.5 -203.5t-182.5 -76.5q-117 0 -183 74.5t-66 205.5q0 126 67 202.5t183 76.5zM293 447q-115 0 -115 -182q0 -183 114 -183t114 183q0 182 -113 182z" />
    <glyph glyph-name="oacute" unicode="&#xf3;" horiz-adv-x="584" 
d="M368 820l52 -100l-226 -90l-36 65zM293 544q117 0 182.5 -74.5t65.5 -204.5q0 -127 -66.5 -203.5t-182.5 -76.5q-117 0 -183 74.5t-66 205.5q0 126 67 202.5t183 76.5zM293 447q-115 0 -115 -182q0 -183 114 -183t114 183q0 182 -113 182z" />
    <glyph glyph-name="ocircumflex" unicode="&#xf4;" horiz-adv-x="584" 
d="M162 627l-49 55l138 126h81l139 -126l-49 -55l-130 88zM293 544q117 0 182.5 -74.5t65.5 -204.5q0 -127 -66.5 -203.5t-182.5 -76.5q-117 0 -183 74.5t-66 205.5q0 126 67 202.5t183 76.5zM293 447q-115 0 -115 -182q0 -183 114 -183t114 183q0 182 -113 182z" />
    <glyph glyph-name="otilde" unicode="&#xf5;" horiz-adv-x="584" 
d="M350 644q-31 0 -66 23.5t-49 23.5q-17 0 -28.5 -10.5t-24.5 -34.5l-69 34q44 104 120 104q33 0 67 -23t49 -23q26 0 53 43l68 -34q-43 -103 -120 -103zM293 544q117 0 182.5 -74.5t65.5 -204.5q0 -127 -66.5 -203.5t-182.5 -76.5q-117 0 -183 74.5t-66 205.5
q0 126 67 202.5t183 76.5zM293 447q-115 0 -115 -182q0 -183 114 -183t114 183q0 182 -113 182z" />
    <glyph glyph-name="odieresis" unicode="&#xf6;" horiz-adv-x="584" 
d="M181 785q29 0 49 -20t20 -49t-20 -49t-49 -20q-30 0 -50.5 20t-20.5 49t20.5 49t50.5 20zM402 785q30 0 50 -20t20 -49t-20 -49t-50 -20q-29 0 -49.5 20t-20.5 49t20.5 49t49.5 20zM293 544q117 0 182.5 -74.5t65.5 -204.5q0 -127 -66.5 -203.5t-182.5 -76.5
q-117 0 -183 74.5t-66 205.5q0 126 67 202.5t183 76.5zM293 447q-115 0 -115 -182q0 -183 114 -183t114 183q0 182 -113 182z" />
    <glyph glyph-name="divide" unicode="&#xf7;" horiz-adv-x="510" 
d="M255 649q34 0 58 -23.5t24 -57.5q0 -33 -24 -57t-58 -24q-33 0 -56.5 24t-23.5 57q0 34 23 57.5t57 23.5zM55 281v102h401v-102h-401zM255 178q34 0 58 -23.5t24 -57.5q0 -33 -24 -57t-58 -24q-33 0 -56.5 24t-23.5 57q0 34 23 57.5t57 23.5z" />
    <glyph glyph-name="oslash" unicode="&#xf8;" horiz-adv-x="584" 
d="M428 509q113 -68 113 -244q0 -127 -66.5 -203.5t-182.5 -76.5q-22 0 -41 3l-38 -121l-98 29l41 124q-113 71 -113 245q0 126 67 202.5t183 76.5q21 0 41 -3l39 121l97 -29zM293 447q-122 0 -122 -182q0 -112 35 -153l111 334q-7 1 -24 1zM292 82q121 0 121 183
q0 112 -35 152l-110 -334q8 -1 24 -1z" />
    <glyph glyph-name="ugrave" unicode="&#xf9;" horiz-adv-x="577" 
d="M217 820l210 -125l-37 -65l-225 90zM500 529v-529h-111l-7 74q-58 -89 -162 -89q-71 0 -109.5 43.5t-38.5 120.5v380h128v-364q0 -45 15.5 -64t49.5 -19q61 0 107 75v372h128z" />
    <glyph glyph-name="uacute" unicode="&#xfa;" horiz-adv-x="577" 
d="M362 820l52 -100l-226 -90l-36 65zM500 529v-529h-111l-7 74q-58 -89 -162 -89q-71 0 -109.5 43.5t-38.5 120.5v380h128v-364q0 -45 15.5 -64t49.5 -19q61 0 107 75v372h128z" />
    <glyph glyph-name="ucircumflex" unicode="&#xfb;" horiz-adv-x="577" 
d="M156 627l-49 55l138 126h81l139 -126l-49 -55l-130 88zM500 529v-529h-111l-7 74q-58 -89 -162 -89q-71 0 -109.5 43.5t-38.5 120.5v380h128v-364q0 -45 15.5 -64t49.5 -19q61 0 107 75v372h128z" />
    <glyph glyph-name="udieresis" unicode="&#xfc;" horiz-adv-x="577" 
d="M175 785q29 0 49 -20t20 -49t-20 -49t-49 -20q-30 0 -50.5 20t-20.5 49t20.5 49t50.5 20zM396 785q30 0 50 -20t20 -49t-20 -49t-50 -20q-29 0 -49.5 20t-20.5 49t20.5 49t49.5 20zM500 529v-529h-111l-7 74q-58 -89 -162 -89q-71 0 -109.5 43.5t-38.5 120.5v380h128
v-364q0 -45 15.5 -64t49.5 -19q61 0 107 75v372h128z" />
    <glyph glyph-name="yacute" unicode="&#xfd;" horiz-adv-x="506" 
d="M329 820l52 -100l-226 -90l-36 65zM505 529l-172 -531q-32 -98 -97 -152.5t-178 -63.5l-13 93q76 12 110.5 39t58.5 86h-44l-168 529h136l115 -444l120 444h132z" />
    <glyph glyph-name="thorn" unicode="&#xfe;" horiz-adv-x="596" 
d="M349 544q198 0 198 -278q0 -125 -55.5 -203t-153.5 -78q-84 0 -133 58v-244l-128 -17v959l128 14v-282q57 71 144 71zM302 83q111 0 111 182q0 98 -25.5 140.5t-76.5 42.5q-62 0 -106 -72v-238q37 -55 97 -55z" />
    <glyph glyph-name="ydieresis" unicode="&#xff;" horiz-adv-x="506" 
d="M142 785q29 0 49 -20t20 -49t-20 -49t-49 -20q-30 0 -50.5 20t-20.5 49t20.5 49t50.5 20zM363 785q30 0 50 -20t20 -49t-20 -49t-50 -20q-29 0 -49.5 20t-20.5 49t20.5 49t49.5 20zM505 529l-172 -531q-32 -98 -97 -152.5t-178 -63.5l-13 93q76 12 110.5 39t58.5 86h-44
l-168 529h136l115 -444l120 444h132z" />
    <glyph glyph-name="Amacron" unicode="&#x100;" horiz-adv-x="583" 
d="M437 878v-91h-291v91h291zM447 0l-43 160h-229l-43 -160h-137l215 691h163l214 -691h-140zM201 260h176l-88 330z" />
    <glyph glyph-name="amacron" unicode="&#x101;" horiz-adv-x="546" 
d="M411 752v-91h-291v91h291zM468 140q0 -31 9.5 -45.5t30.5 -22.5l-27 -85q-88 8 -117 77q-52 -79 -158 -79q-79 0 -125 45t-46 118q0 86 62.5 131.5t178.5 45.5h66v30q0 51 -23.5 71.5t-75.5 20.5q-58 0 -140 -28l-30 87q99 38 192 38q203 0 203 -182v-222zM240 78
q65 0 102 65v107h-53q-124 0 -124 -92q0 -80 75 -80z" />
    <glyph glyph-name="Abreve" unicode="&#x102;" horiz-adv-x="583" 
d="M291 754q-68 0 -112 41t-50 103l75 15q22 -67 87 -67q67 0 88 67l76 -15q-6 -62 -50.5 -103t-113.5 -41zM447 0l-43 160h-229l-43 -160h-137l215 691h163l214 -691h-140zM201 260h176l-88 330z" />
    <glyph glyph-name="abreve" unicode="&#x103;" horiz-adv-x="546" 
d="M265 637q-69 0 -112.5 43t-49.5 112l75 14q20 -77 87 -77q69 0 88 77l76 -14q-6 -69 -50.5 -112t-113.5 -43zM468 140q0 -31 9.5 -45.5t30.5 -22.5l-27 -85q-88 8 -117 77q-52 -79 -158 -79q-79 0 -125 45t-46 118q0 86 62.5 131.5t178.5 45.5h66v30q0 51 -23.5 71.5
t-75.5 20.5q-58 0 -140 -28l-30 87q99 38 192 38q203 0 203 -182v-222zM240 78q65 0 102 65v107h-53q-124 0 -124 -92q0 -80 75 -80z" />
    <glyph glyph-name="Aogonek" unicode="&#x104;" horiz-adv-x="583" 
d="M523 0q-121 -48 -121 -108q0 -46 55 -46q27 0 61 7l-10 -85q-37 -7 -67 -7q-61 0 -99 30t-38 79q0 98 137 152l-37 138h-229l-43 -160h-137l215 691h163l214 -691h-64zM201 260h176l-88 330z" />
    <glyph glyph-name="aogonek" unicode="&#x105;" horiz-adv-x="546" 
d="M481 -13q-121 -48 -121 -108q0 -46 55 -46q27 0 61 7l-10 -85q-37 -7 -67 -7q-61 0 -99 30t-38 79q0 99 142 154q-27 19 -40 53q-52 -79 -158 -79q-79 0 -125 45t-46 118q0 86 62.5 131.5t178.5 45.5h66v30q0 51 -23.5 71.5t-75.5 20.5q-58 0 -140 -28l-30 87
q99 38 192 38q203 0 203 -182v-222q0 -31 9.5 -45.5t30.5 -22.5zM240 78q65 0 102 65v107h-53q-124 0 -124 -92q0 -80 75 -80z" />
    <glyph glyph-name="Cacute" unicode="&#x106;" horiz-adv-x="568" 
d="M432 936l50 -100l-229 -83l-33 66zM345 706q113 0 202 -73l-67 -78q-61 49 -128 49q-77 0 -123.5 -62t-46.5 -195q0 -130 46 -193t124 -63q66 0 141 56l62 -78q-82 -84 -208 -84q-138 0 -221 95t-83 267q0 169 85 264t217 95z" />
    <glyph glyph-name="cacute" unicode="&#x107;" horiz-adv-x="478" 
d="M366 820l52 -100l-226 -90l-36 65zM290 544q100 0 172 -62l-57 -77q-51 38 -107 38q-119 0 -119 -181q0 -173 119 -173q48 0 107 38l57 -81q-75 -61 -171 -61q-115 0 -181.5 74t-66.5 201q0 128 67 206t180 78z" />
    <glyph glyph-name="Ccircumflex" unicode="&#x108;" horiz-adv-x="568" 
d="M220 757l-49 55l139 121h80l139 -121l-49 -55l-130 82zM345 706q113 0 202 -73l-67 -78q-61 49 -128 49q-77 0 -123.5 -62t-46.5 -195q0 -130 46 -193t124 -63q66 0 141 56l62 -78q-82 -84 -208 -84q-138 0 -221 95t-83 267q0 169 85 264t217 95z" />
    <glyph glyph-name="ccircumflex" unicode="&#x109;" horiz-adv-x="478" 
d="M160 627l-49 55l138 126h81l139 -126l-49 -55l-130 88zM290 544q100 0 172 -62l-57 -77q-51 38 -107 38q-119 0 -119 -181q0 -173 119 -173q48 0 107 38l57 -81q-75 -61 -171 -61q-115 0 -181.5 74t-66.5 201q0 128 67 206t180 78z" />
    <glyph glyph-name="Cdotaccent" unicode="&#x10a;" horiz-adv-x="568" 
d="M350 923q36 0 58.5 -22.5t22.5 -55.5t-22.5 -55t-58.5 -22q-35 0 -57.5 22t-22.5 55t22.5 55.5t57.5 22.5zM345 706q113 0 202 -73l-67 -78q-61 49 -128 49q-77 0 -123.5 -62t-46.5 -195q0 -130 46 -193t124 -63q66 0 141 56l62 -78q-82 -84 -208 -84q-138 0 -221 95
t-83 267q0 169 85 264t217 95z" />
    <glyph glyph-name="cdotaccent" unicode="&#x10b;" horiz-adv-x="478" 
d="M289 797q36 0 58.5 -22.5t22.5 -55.5t-22.5 -55t-58.5 -22q-35 0 -57.5 22t-22.5 55t22.5 55.5t57.5 22.5zM290 544q100 0 172 -62l-57 -77q-51 38 -107 38q-119 0 -119 -181q0 -173 119 -173q48 0 107 38l57 -81q-75 -61 -171 -61q-115 0 -181.5 74t-66.5 201
q0 128 67 206t180 78z" />
    <glyph glyph-name="Ccaron" unicode="&#x10c;" horiz-adv-x="568" 
d="M481 928l49 -56l-139 -120h-80l-139 120l49 56l130 -83zM345 706q113 0 202 -73l-67 -78q-61 49 -128 49q-77 0 -123.5 -62t-46.5 -195q0 -130 46 -193t124 -63q66 0 141 56l62 -78q-82 -84 -208 -84q-138 0 -221 95t-83 267q0 169 85 264t217 95z" />
    <glyph glyph-name="ccaron" unicode="&#x10d;" horiz-adv-x="478" 
d="M420 800l49 -56l-139 -125h-80l-139 125l49 56l130 -88zM290 544q100 0 172 -62l-57 -77q-51 38 -107 38q-119 0 -119 -181q0 -173 119 -173q48 0 107 38l57 -81q-75 -61 -171 -61q-115 0 -181.5 74t-66.5 201q0 128 67 206t180 78z" />
    <glyph glyph-name="Dcaron" unicode="&#x10e;" horiz-adv-x="648" 
d="M429 928l49 -56l-139 -120h-80l-139 120l49 56l130 -83zM251 691q59 0 107 -8t95.5 -30.5t79.5 -59.5t52 -99t20 -145q0 -100 -28.5 -171.5t-78.5 -108.5t-106 -53t-123 -16h-188v691h170zM274 592h-61v-493h65q42 0 73.5 11t58.5 37t41.5 77t14.5 125q0 75 -15 125
t-43.5 75t-59.5 34t-74 9z" />
    <glyph glyph-name="dcaron" unicode="&#x10f;" horiz-adv-x="646" 
d="M394 487v268l128 -14v-741h-113l-9 67q-55 -82 -151 -82q-97 0 -149 75t-52 204q0 124 58 202t155 78q76 0 133 -57zM585 755l103 -14l-53 -201l-71 11zM285 82q64 0 109 68v242q-46 56 -101 56q-51 0 -80.5 -45.5t-29.5 -137.5q0 -183 102 -183z" />
    <glyph glyph-name="Dcroat" unicode="&#x110;" horiz-adv-x="661" 
d="M264 691q59 0 107 -8t95.5 -30.5t79.5 -59.5t52 -99t20 -145q0 -100 -28.5 -171.5t-78.5 -108.5t-106 -53t-123 -16h-188v310h-77v86h77v295h170zM291 99q42 0 73.5 11t58.5 37t41.5 77t14.5 125q0 75 -15 125t-43.5 75t-59.5 34t-74 9h-61v-196h145v-86h-145v-211h65z
" />
    <glyph glyph-name="dcroat" unicode="&#x111;" horiz-adv-x="606" 
d="M522 683h70v-82h-70v-601h-113l-9 67q-55 -82 -151 -82q-97 0 -149 75t-52 204q0 124 58 202t155 78q76 0 133 -57v114h-146v82h146v72l128 -14v-58zM285 82q64 0 109 68v242q-46 56 -101 56q-51 0 -80.5 -45.5t-29.5 -137.5q0 -183 102 -183z" />
    <glyph glyph-name="Emacron" unicode="&#x112;" horiz-adv-x="530" 
d="M429 787h-291v91h291v-91zM482 691l-14 -98h-255v-193h222v-98h-222v-203h273v-99h-405v691h401z" />
    <glyph glyph-name="emacron" unicode="&#x113;" horiz-adv-x="549" 
d="M426 752v-91h-291v91h291zM511 277q0 -10 -3 -52h-332q12 -143 130 -143q64 0 132 47l53 -73q-88 -71 -196 -71q-121 0 -186.5 74t-65.5 202q0 124 62.5 203.5t172.5 79.5q111 0 172 -70.5t61 -196.5zM384 308v6q0 139 -103 139q-95 0 -105 -145h208z" />
    <glyph glyph-name="Ebreve" unicode="&#x114;" horiz-adv-x="530" 
d="M283 754q-68 0 -112 41t-50 103l75 15q22 -67 87 -67q67 0 88 67l76 -15q-6 -62 -50.5 -103t-113.5 -41zM482 691l-14 -98h-255v-193h222v-98h-222v-203h273v-99h-405v691h401z" />
    <glyph glyph-name="ebreve" unicode="&#x115;" horiz-adv-x="549" 
d="M280 637q-69 0 -112.5 43t-49.5 112l75 14q20 -77 87 -77q69 0 88 77l76 -14q-6 -69 -50.5 -112t-113.5 -43zM511 277q0 -10 -3 -52h-332q12 -143 130 -143q64 0 132 47l53 -73q-88 -71 -196 -71q-121 0 -186.5 74t-65.5 202q0 124 62.5 203.5t172.5 79.5
q111 0 172 -70.5t61 -196.5zM384 308v6q0 139 -103 139q-95 0 -105 -145h208z" />
    <glyph glyph-name="Edotaccent" unicode="&#x116;" horiz-adv-x="530" 
d="M283 923q36 0 58.5 -22.5t22.5 -55.5t-22.5 -55t-58.5 -22q-35 0 -57.5 22t-22.5 55t22.5 55.5t57.5 22.5zM482 691l-14 -98h-255v-193h222v-98h-222v-203h273v-99h-405v691h401z" />
    <glyph glyph-name="edotaccent" unicode="&#x117;" horiz-adv-x="549" 
d="M280 642q-35 0 -57.5 22t-22.5 55t22.5 55.5t57.5 22.5q36 0 58.5 -22.5t22.5 -55.5t-22.5 -55t-58.5 -22zM511 277q0 -10 -3 -52h-332q12 -143 130 -143q64 0 132 47l53 -73q-88 -71 -196 -71q-121 0 -186.5 74t-65.5 202q0 124 62.5 203.5t172.5 79.5q111 0 172 -70.5
t61 -196.5zM384 308v6q0 139 -103 139q-95 0 -105 -145h208z" />
    <glyph glyph-name="Eogonek" unicode="&#x118;" horiz-adv-x="530" 
d="M213 99h273v-99h-40q-121 -48 -121 -108q0 -46 55 -46q27 0 61 7l-10 -85q-37 -7 -67 -7q-61 0 -99 30t-38 79q0 80 90 130h-236v691h401l-14 -98h-255v-193h222v-98h-222v-203z" />
    <glyph glyph-name="eogonek" unicode="&#x119;" horiz-adv-x="549" 
d="M511 277q0 -10 -3 -52h-332q12 -143 130 -143q64 0 132 47l53 -73q-50 -40 -105 -57q-98 -45 -98 -99q0 -46 54 -46q29 0 61 7l-10 -85q-37 -7 -67 -7q-61 0 -99 30t-38 79q0 68 74 108q-106 10 -163 83t-57 192q0 124 62.5 203.5t172.5 79.5q111 0 172 -70.5t61 -196.5z
M384 308v6q0 139 -103 139q-95 0 -105 -145h208z" />
    <glyph glyph-name="Ecaron" unicode="&#x11a;" horiz-adv-x="530" 
d="M414 928l49 -56l-139 -120h-80l-139 120l49 56l130 -83zM482 691l-14 -98h-255v-193h222v-98h-222v-203h273v-99h-405v691h401z" />
    <glyph glyph-name="ecaron" unicode="&#x11b;" horiz-adv-x="549" 
d="M321 619h-80l-139 125l49 56l130 -88l130 88l49 -56zM511 277q0 -10 -3 -52h-332q12 -143 130 -143q64 0 132 47l53 -73q-88 -71 -196 -71q-121 0 -186.5 74t-65.5 202q0 124 62.5 203.5t172.5 79.5q111 0 172 -70.5t61 -196.5zM384 308v6q0 139 -103 139
q-95 0 -105 -145h208z" />
    <glyph glyph-name="Gcircumflex" unicode="&#x11c;" horiz-adv-x="638" 
d="M222 757l-49 55l139 121h80l139 -121l-49 -55l-130 82zM360 706q124 0 220 -81l-71 -74q-70 55 -145 55q-80 0 -131 -64t-51 -196q0 -138 40.5 -199t123.5 -61q63 0 110 27v180h-104l-14 98h248v-338q-112 -68 -238 -68q-148 0 -226.5 92t-78.5 269q0 169 90.5 264.5
t226.5 95.5z" />
    <glyph glyph-name="gcircumflex" unicode="&#x11d;" horiz-adv-x="537" 
d="M138 627l-49 55l138 126h81l139 -126l-49 -55l-130 88zM505 603l32 -102q-51 -18 -153 -18q96 -43 96 -136q0 -79 -57.5 -128.5t-155.5 -49.5q-36 0 -63 8q-22 -15 -22 -39q0 -37 64 -37h81q87 0 140 -42t53 -108q0 -80 -68 -124.5t-196 -44.5q-135 0 -188 41t-53 125
h115q0 -42 26 -59t102 -17q73 0 103 18t30 52q0 30 -23 46.5t-67 16.5h-80q-75 0 -113 29t-38 73q0 60 62 98q-93 49 -93 149q0 86 61 138t158 52q59 -1 107 7.5t74 19.5t66 32zM260 457q-43 0 -67.5 -27.5t-24.5 -73.5q0 -48 25 -76t69 -28q46 0 70 27.5t24 77.5
q0 100 -96 100z" />
    <glyph glyph-name="Gbreve" unicode="&#x11e;" horiz-adv-x="638" 
d="M352 754q-68 0 -112 41t-50 103l75 15q22 -67 87 -67q67 0 88 67l76 -15q-6 -62 -50.5 -103t-113.5 -41zM360 706q124 0 220 -81l-71 -74q-70 55 -145 55q-80 0 -131 -64t-51 -196q0 -138 40.5 -199t123.5 -61q63 0 110 27v180h-104l-14 98h248v-338q-112 -68 -238 -68
q-148 0 -226.5 92t-78.5 269q0 169 90.5 264.5t226.5 95.5z" />
    <glyph glyph-name="gbreve" unicode="&#x11f;" horiz-adv-x="537" 
d="M267 637q-69 0 -112.5 43t-49.5 112l75 14q20 -77 87 -77q69 0 88 77l76 -14q-6 -69 -50.5 -112t-113.5 -43zM505 603l32 -102q-51 -18 -153 -18q96 -43 96 -136q0 -79 -57.5 -128.5t-155.5 -49.5q-36 0 -63 8q-22 -15 -22 -39q0 -37 64 -37h81q87 0 140 -42t53 -108
q0 -80 -68 -124.5t-196 -44.5q-135 0 -188 41t-53 125h115q0 -42 26 -59t102 -17q73 0 103 18t30 52q0 30 -23 46.5t-67 16.5h-80q-75 0 -113 29t-38 73q0 60 62 98q-93 49 -93 149q0 86 61 138t158 52q59 -1 107 7.5t74 19.5t66 32zM260 457q-43 0 -67.5 -27.5t-24.5 -73.5
q0 -48 25 -76t69 -28q46 0 70 27.5t24 77.5q0 100 -96 100z" />
    <glyph glyph-name="Gdotaccent" unicode="&#x120;" horiz-adv-x="638" 
d="M352 923q36 0 58.5 -22.5t22.5 -55.5t-22.5 -55t-58.5 -22q-35 0 -57.5 22t-22.5 55t22.5 55.5t57.5 22.5zM360 706q124 0 220 -81l-71 -74q-70 55 -145 55q-80 0 -131 -64t-51 -196q0 -138 40.5 -199t123.5 -61q63 0 110 27v180h-104l-14 98h248v-338q-112 -68 -238 -68
q-148 0 -226.5 92t-78.5 269q0 169 90.5 264.5t226.5 95.5z" />
    <glyph glyph-name="gdotaccent" unicode="&#x121;" horiz-adv-x="537" 
d="M267 797q36 0 58.5 -22.5t22.5 -55.5t-22.5 -55t-58.5 -22q-35 0 -57.5 22t-22.5 55t22.5 55.5t57.5 22.5zM505 603l32 -102q-51 -18 -153 -18q96 -43 96 -136q0 -79 -57.5 -128.5t-155.5 -49.5q-36 0 -63 8q-22 -15 -22 -39q0 -37 64 -37h81q87 0 140 -42t53 -108
q0 -80 -68 -124.5t-196 -44.5q-135 0 -188 41t-53 125h115q0 -42 26 -59t102 -17q73 0 103 18t30 52q0 30 -23 46.5t-67 16.5h-80q-75 0 -113 29t-38 73q0 60 62 98q-93 49 -93 149q0 86 61 138t158 52q59 -1 107 7.5t74 19.5t66 32zM260 457q-43 0 -67.5 -27.5t-24.5 -73.5
q0 -48 25 -76t69 -28q46 0 70 27.5t24 77.5q0 100 -96 100z" />
    <glyph glyph-name="Gcommaaccent" unicode="&#x122;" horiz-adv-x="638" 
d="M360 706q124 0 220 -81l-71 -74q-70 55 -145 55q-80 0 -131 -64t-51 -196q0 -138 40.5 -199t123.5 -61q63 0 110 27v180h-104l-14 98h248v-338q-112 -68 -238 -68q-148 0 -226.5 92t-78.5 269q0 169 90.5 264.5t226.5 95.5zM347 -72q29 0 49 -19.5t20 -48.5
q0 -26 -27 -81l-44 -91h-67l28 116q-29 22 -29 56q0 29 20 48.5t50 19.5z" />
    <glyph glyph-name="gcommaaccent" unicode="&#x123;" horiz-adv-x="537" 
d="M267 580q-29 0 -49 19.5t-20 48.5q0 26 27 81l44 91h67l-28 -116q29 -22 29 -56q0 -29 -20 -48.5t-50 -19.5zM505 603l32 -102q-51 -18 -153 -18q96 -43 96 -136q0 -79 -57.5 -128.5t-155.5 -49.5q-36 0 -63 8q-22 -15 -22 -39q0 -37 64 -37h81q87 0 140 -42t53 -108
q0 -80 -68 -124.5t-196 -44.5q-135 0 -188 41t-53 125h115q0 -42 26 -59t102 -17q73 0 103 18t30 52q0 30 -23 46.5t-67 16.5h-80q-75 0 -113 29t-38 73q0 60 62 98q-93 49 -93 149q0 86 61 138t158 52q59 -1 107 7.5t74 19.5t66 32zM260 457q-43 0 -67.5 -27.5t-24.5 -73.5
q0 -48 25 -76t69 -28q46 0 70 27.5t24 77.5q0 100 -96 100z" />
    <glyph glyph-name="Hcircumflex" unicode="&#x124;" horiz-adv-x="672" 
d="M205 757l-49 55l139 121h80l139 -121l-49 -55l-130 82zM459 0v309h-246v-309h-132v691h132v-277h246v277h133v-691h-133z" />
    <glyph glyph-name="hcircumflex" unicode="&#x125;" horiz-adv-x="581" 
d="M289 889l-130 -82l-49 55l139 121h80l139 -121l-49 -55zM359 544q70 0 110 -43t40 -118v-383h-128v363q0 47 -16.5 66t-48.5 19q-60 0 -111 -79v-369h-128v740l128 13v-287q64 78 154 78z" />
    <glyph glyph-name="Hbar" unicode="&#x126;" horiz-adv-x="682" 
d="M659 585v-81h-62v-504h-133v309h-246v-309h-132v504h-63v81h63v106h132v-106h246v106h133v-106h62zM464 414v90h-246v-90h246z" />
    <glyph glyph-name="hbar" unicode="&#x127;" horiz-adv-x="589" 
d="M366 544q70 0 110 -43t40 -118v-383h-128v363q0 47 -16.5 66t-48.5 19q-60 0 -111 -79v-369h-128v601h-69v82h69v57l128 13v-70h140v-82h-140v-135q64 78 154 78z" />
    <glyph glyph-name="Itilde" unicode="&#x128;" horiz-adv-x="294" 
d="M205 770q-31 0 -66 23.5t-49 23.5q-17 0 -28.5 -10.5t-24.5 -34.5l-69 34q44 104 120 104q32 0 67 -23t49 -23q26 0 53 43l68 -34q-43 -103 -120 -103zM213 691v-691h-132v691h132z" />
    <glyph glyph-name="itilde" unicode="&#x129;" horiz-adv-x="282" 
d="M199 644q-31 0 -66 23.5t-49 23.5q-17 0 -28.5 -10.5t-24.5 -34.5l-69 34q44 104 120 104q32 0 67 -23t49 -23q26 0 53 43l68 -34q-43 -103 -120 -103zM205 529v-529h-128v529h128z" />
    <glyph glyph-name="Imacron" unicode="&#x12a;" horiz-adv-x="294" 
d="M292 787h-291v91h291v-91zM213 691v-691h-132v691h132z" />
    <glyph glyph-name="imacron" unicode="&#x12b;" horiz-adv-x="282" 
d="M286 661h-291v91h291v-91zM205 529v-529h-128v529h128z" />
    <glyph glyph-name="Ibreve" unicode="&#x12c;" horiz-adv-x="294" 
d="M146 754q-68 0 -112 41t-50 103l75 15q22 -67 87 -67q67 0 88 67l76 -15q-6 -62 -50.5 -103t-113.5 -41zM213 691v-691h-132v691h132z" />
    <glyph glyph-name="ibreve" unicode="&#x12d;" horiz-adv-x="282" 
d="M140 637q-69 0 -112.5 43t-49.5 112l75 14q20 -77 87 -77q69 0 88 77l76 -14q-6 -69 -50.5 -112t-113.5 -43zM205 529v-529h-128v529h128z" />
    <glyph glyph-name="Iogonek" unicode="&#x12e;" horiz-adv-x="294" 
d="M81 691h132v-691h-15q-121 -48 -121 -108q0 -46 55 -46q27 0 61 7l-10 -85q-37 -7 -67 -7q-61 0 -99 30t-38 79q0 85 102 136v685z" />
    <glyph glyph-name="iogonek" unicode="&#x12f;" horiz-adv-x="282" 
d="M140 642q-35 0 -57.5 22t-22.5 55t22.5 55.5t57.5 22.5q36 0 58.5 -22.5t22.5 -55.5t-22.5 -55t-58.5 -22zM77 8v521h128v-529h-14q-121 -48 -121 -108q0 -46 55 -46q27 0 61 7l-10 -85q-37 -7 -67 -7q-61 0 -99 30t-38 79q0 86 105 138z" />
    <glyph glyph-name="Idotaccent" unicode="&#x130;" horiz-adv-x="294" 
d="M146 923q36 0 58.5 -22.5t22.5 -55.5t-22.5 -55t-58.5 -22q-35 0 -57.5 22t-22.5 55t22.5 55.5t57.5 22.5zM213 691v-691h-132v691h132z" />
    <glyph glyph-name="dotlessi" unicode="&#x131;" horiz-adv-x="282" 
d="M205 529v-529h-128v529h128z" />
    <glyph glyph-name="IJ" unicode="&#x132;" horiz-adv-x="606" 
d="M213 691v-691h-132v691h132zM529 691v-590q0 -58 -15 -102t-44.5 -73t-63 -47.5t-80.5 -33.5l-35 95q64 25 84.5 60.5t20.5 105.5v585h133z" />
    <glyph glyph-name="ij" unicode="&#x133;" horiz-adv-x="563" 
d="M140 797q36 0 58.5 -22.5t22.5 -55.5t-22.5 -55t-58.5 -22q-35 0 -57.5 22t-22.5 55t22.5 55.5t57.5 22.5zM421 797q36 0 58.5 -22.5t22.5 -55.5t-22.5 -55t-58.5 -22q-35 0 -57.5 22t-22.5 55t22.5 55.5t57.5 22.5zM205 529v-529h-128v529h128zM486 529v-482
q0 -113 -46.5 -168.5t-146.5 -95.5l-41 93q58 27 82 59t24 104v490h128z" />
    <glyph glyph-name="Jcircumflex" unicode="&#x134;" horiz-adv-x="312" 
d="M38 757l-49 55l139 121h80l139 -121l-49 -55l-130 82zM235 691v-590q0 -58 -15 -102t-44.5 -73t-63 -47.5t-80.5 -33.5l-35 95q64 25 84.5 60.5t20.5 105.5v585h133z" />
    <glyph glyph-name="jcircumflex" unicode="&#x135;" horiz-adv-x="281" 
d="M10 627l-49 55l138 126h81l139 -126l-49 -55l-130 88zM204 529v-482q0 -113 -46.5 -168.5t-146.5 -95.5l-41 93q58 27 82 59t24 104v490h128z" />
    <glyph glyph-name="Kcommaaccent" unicode="&#x136;" horiz-adv-x="613" 
d="M213 691v-691h-132v691h132zM601 691l-239 -313l258 -378h-157l-244 369l239 322h143zM322 -72q29 0 49 -19.5t20 -48.5q0 -26 -27 -81l-44 -91h-67l28 116q-29 22 -29 56q0 29 20 48.5t50 19.5z" />
    <glyph glyph-name="kcommaaccent" unicode="&#x137;" horiz-adv-x="534" 
d="M205 755v-755h-128v741zM522 529l-176 -233l193 -296h-147l-182 289l177 240h135zM268 -72q29 0 49 -19.5t20 -48.5q0 -26 -27 -81l-44 -91h-67l28 116q-29 22 -29 56q0 29 20 48.5t50 19.5z" />
    <glyph glyph-name="kgreenlandic" unicode="&#x138;" horiz-adv-x="532" 
d="M205 529v-529h-128v529h128zM520 529l-176 -243l193 -286h-147l-182 279l177 250h135z" />
    <glyph glyph-name="Lacute" unicode="&#x139;" horiz-adv-x="506" 
d="M228 936l50 -100l-229 -83l-33 66zM213 691v-583h277l-15 -108h-394v691h132z" />
    <glyph glyph-name="lacute" unicode="&#x13a;" horiz-adv-x="295" 
d="M217 986l50 -100l-229 -83l-33 66zM202 -15q-61 0 -95.5 35.5t-34.5 100.5v620l128 14v-630q0 -37 30 -37q15 0 30 5l27 -90q-40 -18 -85 -18z" />
    <glyph glyph-name="Lcommaaccent" unicode="&#x13b;" horiz-adv-x="506" 
d="M213 691v-583h277l-15 -108h-394v691h132zM280 -72q29 0 49 -19.5t20 -48.5q0 -26 -27 -81l-44 -91h-67l28 116q-29 22 -29 56q0 29 20 48.5t50 19.5z" />
    <glyph glyph-name="lcommaaccent" unicode="&#x13c;" horiz-adv-x="295" 
d="M202 -15q-61 0 -95.5 35.5t-34.5 100.5v620l128 14v-630q0 -37 30 -37q15 0 30 5l27 -90q-40 -18 -85 -18zM183 -72q29 0 49 -19.5t20 -48.5q0 -26 -27 -81l-44 -91h-67l28 116q-29 22 -29 56q0 29 20 48.5t50 19.5z" />
    <glyph glyph-name="Lcaron" unicode="&#x13d;" horiz-adv-x="506" 
d="M333 490l53 201l-103 14l-21 -204zM213 691v-583h277l-15 -108h-394v691h132z" />
    <glyph glyph-name="lcaron" unicode="&#x13e;" horiz-adv-x="334" 
d="M202 -15q-61 0 -95.5 35.5t-34.5 100.5v620l128 14v-630q0 -37 30 -37q15 0 30 5l27 -90q-40 -18 -85 -18zM314 540l53 201l-103 14l-21 -204z" />
    <glyph glyph-name="Ldot" unicode="&#x13f;" horiz-adv-x="506" 
d="M213 691v-583h277l-15 -108h-394v691h132zM395 472q36 0 58.5 -22.5t22.5 -55.5t-22.5 -55t-58.5 -22q-35 0 -57.5 22t-22.5 55t22.5 55.5t57.5 22.5z" />
    <glyph glyph-name="ldot" unicode="&#x140;" horiz-adv-x="392" 
d="M202 -15q-61 0 -95.5 35.5t-34.5 100.5v620l128 14v-630q0 -37 30 -37q15 0 30 5l27 -90q-40 -18 -85 -18zM329 455q36 0 58.5 -22.5t22.5 -55.5t-22.5 -55t-58.5 -22q-35 0 -57.5 22t-22.5 55t22.5 55.5t57.5 22.5z" />
    <glyph glyph-name="Lslash" unicode="&#x141;" horiz-adv-x="535" 
d="M242 108h277l-15 -108h-394v239l-49 -30l-46 75l95 58v349h132v-267l143 89l46 -75l-189 -117v-213z" />
    <glyph glyph-name="lslash" unicode="&#x142;" horiz-adv-x="337" 
d="M248 88q15 0 30 5l27 -90q-40 -18 -85 -18q-61 0 -95.5 35.5t-34.5 100.5v162l-46 -28l-44 73l90 57v356l128 14v-293l78 47l43 -74l-121 -74v-236q0 -37 30 -37z" />
    <glyph glyph-name="Nacute" unicode="&#x143;" horiz-adv-x="672" 
d="M425 936l50 -100l-229 -83l-33 66zM591 691v-691h-171l-237 559q18 -157 18 -277v-282h-120v691h167l241 -560q-18 114 -18 236v324h120z" />
    <glyph glyph-name="nacute" unicode="&#x144;" horiz-adv-x="581" 
d="M424 720l-226 -90l-36 65l210 125zM359 544q71 0 110.5 -42.5t39.5 -118.5v-383h-128v363q0 47 -16.5 66t-48.5 19q-60 0 -111 -80v-368h-128v529h111l10 -69q65 84 161 84z" />
    <glyph glyph-name="Ncommaaccent" unicode="&#x145;" horiz-adv-x="672" 
d="M591 691v-691h-171l-237 559q18 -157 18 -277v-282h-120v691h167l241 -560q-18 114 -18 236v324h120zM339 -72q29 0 49 -19.5t20 -48.5q0 -26 -27 -81l-44 -91h-67l28 116q-29 22 -29 56q0 29 20 48.5t50 19.5z" />
    <glyph glyph-name="ncommaaccent" unicode="&#x146;" horiz-adv-x="581" 
d="M359 544q71 0 110.5 -42.5t39.5 -118.5v-383h-128v363q0 47 -16.5 66t-48.5 19q-60 0 -111 -80v-368h-128v529h111l10 -69q65 84 161 84zM293 -72q29 0 49 -19.5t20 -48.5q0 -26 -27 -81l-44 -91h-67l28 116q-29 22 -29 56q0 29 20 48.5t50 19.5z" />
    <glyph glyph-name="Ncaron" unicode="&#x147;" horiz-adv-x="672" 
d="M474 928l49 -56l-139 -120h-80l-139 120l49 56l130 -83zM591 691v-691h-171l-237 559q18 -157 18 -277v-282h-120v691h167l241 -560q-18 114 -18 236v324h120z" />
    <glyph glyph-name="ncaron" unicode="&#x148;" horiz-adv-x="581" 
d="M336 619h-80l-139 125l49 56l130 -88l130 88l49 -56zM359 544q71 0 110.5 -42.5t39.5 -118.5v-383h-128v363q0 47 -16.5 66t-48.5 19q-60 0 -111 -80v-368h-128v529h111l10 -69q65 84 161 84z" />
    <glyph glyph-name="napostrophe" unicode="&#x149;" horiz-adv-x="699" 
d="M103 757q27 0 45 -18t18 -45q0 -25 -25 -76l-41 -84h-61l26 108q-27 23 -27 52q0 26 19 44.5t46 18.5zM476 544q71 0 110.5 -42.5t39.5 -118.5v-383h-128v363q0 47 -16.5 66t-48.5 19q-60 0 -111 -80v-368h-128v529h111l10 -69q65 84 161 84z" />
    <glyph glyph-name="Eng" unicode="&#x14a;" horiz-adv-x="672" 
d="M471 691h120v-734q0 -86 -47.5 -130.5t-130.5 -44.5q-75 0 -129 41l46 80q37 -21 71 -21q58 0 58 67v51h-39l-237 559q18 -157 18 -277v-282h-120v691h167l241 -560q-18 114 -18 236v324z" />
    <glyph glyph-name="eng" unicode="&#x14b;" horiz-adv-x="581" 
d="M359 544q71 0 110.5 -42.5t39.5 -118.5v-426q0 -85 -47.5 -130t-128.5 -45q-77 0 -129 41l45 76q38 -20 72 -20q60 0 60 67v417q0 47 -16.5 66t-48.5 19q-60 0 -111 -80v-368h-128v529h111l10 -69q65 84 161 84z" />
    <glyph glyph-name="Omacron" unicode="&#x14c;" horiz-adv-x="691" 
d="M491 787h-291v91h291v-91zM346 706q140 0 221 -94.5t81 -265.5q0 -170 -81 -265.5t-221 -95.5t-221.5 94.5t-81.5 265.5q0 169 81.5 265t221.5 96zM346 605q-164 0 -164 -260q0 -259 164 -259q163 0 163 260q0 135 -41.5 197t-121.5 62z" />
    <glyph glyph-name="omacron" unicode="&#x14d;" horiz-adv-x="584" 
d="M437 661h-291v91h291v-91zM293 544q117 0 182.5 -74.5t65.5 -204.5q0 -127 -66.5 -203.5t-182.5 -76.5q-117 0 -183 74.5t-66 205.5q0 126 67 202.5t183 76.5zM293 447q-115 0 -115 -182q0 -183 114 -183t114 183q0 182 -113 182z" />
    <glyph glyph-name="Obreve" unicode="&#x14e;" horiz-adv-x="691" 
d="M345 754q-68 0 -112 41t-50 103l75 15q22 -67 87 -67q67 0 88 67l76 -15q-6 -62 -50.5 -103t-113.5 -41zM346 706q140 0 221 -94.5t81 -265.5q0 -170 -81 -265.5t-221 -95.5t-221.5 94.5t-81.5 265.5q0 169 81.5 265t221.5 96zM346 605q-164 0 -164 -260q0 -259 164 -259
q163 0 163 260q0 135 -41.5 197t-121.5 62z" />
    <glyph glyph-name="obreve" unicode="&#x14f;" horiz-adv-x="584" 
d="M291 637q-69 0 -112.5 43t-49.5 112l75 14q20 -77 87 -77q69 0 88 77l76 -14q-6 -69 -50.5 -112t-113.5 -43zM293 544q117 0 182.5 -74.5t65.5 -204.5q0 -127 -66.5 -203.5t-182.5 -76.5q-117 0 -183 74.5t-66 205.5q0 126 67 202.5t183 76.5zM293 447q-115 0 -115 -182
q0 -183 114 -183t114 183q0 182 -113 182z" />
    <glyph glyph-name="Ohungarumlaut" unicode="&#x150;" horiz-adv-x="691" 
d="M305 973l94 -46l-105 -167l-72 30zM470 973l93 -48l-115 -170l-70 32zM346 706q140 0 221 -94.5t81 -265.5q0 -170 -81 -265.5t-221 -95.5t-221.5 94.5t-81.5 265.5q0 169 81.5 265t221.5 96zM346 605q-164 0 -164 -260q0 -259 164 -259q163 0 163 260q0 135 -41.5 197
t-121.5 62z" />
    <glyph glyph-name="ohungarumlaut" unicode="&#x151;" horiz-adv-x="584" 
d="M252 847l94 -46l-105 -167l-72 30zM417 847l93 -48l-115 -170l-70 32zM293 544q117 0 182.5 -74.5t65.5 -204.5q0 -127 -66.5 -203.5t-182.5 -76.5q-117 0 -183 74.5t-66 205.5q0 126 67 202.5t183 76.5zM293 447q-115 0 -115 -182q0 -183 114 -183t114 183
q0 182 -113 182z" />
    <glyph glyph-name="OE" unicode="&#x152;" horiz-adv-x="901" 
d="M857 99v-99h-441q-39 -15 -85 -15q-130 0 -209 95t-79 265q0 168 79 264.5t209 96.5q49 0 89 -15h434l-15 -98h-288q63 -74 74 -193h182v-98h-181q-11 -125 -80 -203h311zM182 345q0 -134 41 -196.5t113 -62.5q153 0 153 260q0 259 -153 259q-154 0 -154 -260z" />
    <glyph glyph-name="oe" unicode="&#x153;" horiz-adv-x="911" 
d="M873 277q0 -10 -3 -52h-331q12 -143 129 -143q64 0 132 47l53 -73q-88 -71 -196 -71q-122 0 -185 92q-65 -92 -180 -92q-117 0 -183 74.5t-66 205.5q0 126 66.5 202.5t182.5 76.5q117 0 181 -89q63 89 171 89t168.5 -71t60.5 -196zM747 308v6q-2 139 -100 139
q-49 0 -76 -34t-33 -111h209zM292 82q114 0 114 183q0 182 -114 182t-114 -182q0 -183 114 -183z" />
    <glyph glyph-name="Racute" unicode="&#x154;" horiz-adv-x="611" 
d="M431 836l-229 -83l-33 66l212 117zM450 0l-153 277h-84v-277h-132v691h206q274 0 274 -203q0 -69 -34 -114t-106 -73l181 -301h-152zM213 595v-223h82q128 0 128 116q0 56 -33.5 81.5t-105.5 25.5h-71z" />
    <glyph glyph-name="racute" unicode="&#x155;" horiz-adv-x="394" 
d="M364 720l-226 -90l-36 65l210 125zM338 543q29 0 53 -7l-22 -124q-24 6 -47 6q-47 0 -74 -33.5t-43 -102.5v-282h-128v529h111l12 -104q19 57 55 87.5t83 30.5z" />
    <glyph glyph-name="Rcommaaccent" unicode="&#x156;" horiz-adv-x="611" 
d="M421 301l181 -301h-152l-153 277h-84v-277h-132v691h206q274 0 274 -203q0 -69 -34 -114t-106 -73zM213 595v-223h82q128 0 128 116q0 56 -33.5 81.5t-105.5 25.5h-71zM312 -72q29 0 49 -19.5t20 -48.5q0 -26 -27 -81l-44 -91h-67l28 116q-29 22 -29 56q0 29 20 48.5
t50 19.5z" />
    <glyph glyph-name="rcommaaccent" unicode="&#x157;" horiz-adv-x="394" 
d="M338 543q29 0 53 -7l-22 -124q-24 6 -47 6q-47 0 -74 -33.5t-43 -102.5v-282h-128v529h111l12 -104q19 57 55 87.5t83 30.5zM143 -72q29 0 49 -19.5t20 -48.5q0 -26 -27 -81l-44 -91h-67l28 116q-29 22 -29 56q0 29 20 48.5t50 19.5z" />
    <glyph glyph-name="Rcaron" unicode="&#x158;" horiz-adv-x="611" 
d="M340 752h-80l-139 120l49 56l130 -83l130 83l49 -56zM450 0l-153 277h-84v-277h-132v691h206q274 0 274 -203q0 -69 -34 -114t-106 -73l181 -301h-152zM213 595v-223h82q128 0 128 116q0 56 -33.5 81.5t-105.5 25.5h-71z" />
    <glyph glyph-name="rcaron" unicode="&#x159;" horiz-adv-x="394" 
d="M276 619h-80l-139 125l49 56l130 -88l130 88l49 -56zM200 425q19 57 55 87.5t83 30.5q29 0 53 -7l-22 -124q-24 6 -47 6q-47 0 -74 -33.5t-43 -102.5v-282h-128v529h111z" />
    <glyph glyph-name="Sacute" unicode="&#x15a;" 
d="M368 936l50 -100l-229 -83l-33 66zM280 706q135 0 228 -85l-65 -75q-72 59 -155 59q-48 0 -77.5 -21.5t-29.5 -60.5q0 -38 28 -59.5t114 -48.5q102 -32 153.5 -79.5t51.5 -138.5q0 -95 -70 -153.5t-192 -58.5q-152 0 -249 95l68 76q82 -69 178 -69q57 0 92 27t35 76
q0 44 -28 68t-109 49q-110 34 -159 82t-49 126q0 85 66 138t169 53z" />
    <glyph glyph-name="sacute" unicode="&#x15b;" horiz-adv-x="476" 
d="M323 820l52 -100l-226 -90l-36 65zM244 544q107 0 188 -63l-50 -75q-68 43 -133 43q-38 0 -59 -14.5t-21 -38.5q0 -27 22 -42t89 -34q86 -23 127.5 -61t41.5 -106q0 -79 -64 -123.5t-159 -44.5q-127 0 -211 75l64 72q69 -52 144 -52q43 0 68.5 17t25.5 47q0 33 -22.5 49
t-97.5 37q-157 43 -157 160q0 67 56.5 110.5t147.5 43.5z" />
    <glyph glyph-name="Scircumflex" unicode="&#x15c;" 
d="M156 757l-49 55l139 121h80l139 -121l-49 -55l-130 82zM280 706q135 0 228 -85l-65 -75q-72 59 -155 59q-48 0 -77.5 -21.5t-29.5 -60.5q0 -38 28 -59.5t114 -48.5q102 -32 153.5 -79.5t51.5 -138.5q0 -95 -70 -153.5t-192 -58.5q-152 0 -249 95l68 76q82 -69 178 -69
q57 0 92 27t35 76q0 44 -28 68t-109 49q-110 34 -159 82t-49 126q0 85 66 138t169 53z" />
    <glyph glyph-name="scircumflex" unicode="&#x15d;" horiz-adv-x="476" 
d="M117 627l-49 55l138 126h81l139 -126l-49 -55l-130 88zM244 544q107 0 188 -63l-50 -75q-68 43 -133 43q-38 0 -59 -14.5t-21 -38.5q0 -27 22 -42t89 -34q86 -23 127.5 -61t41.5 -106q0 -79 -64 -123.5t-159 -44.5q-127 0 -211 75l64 72q69 -52 144 -52q43 0 68.5 17
t25.5 47q0 33 -22.5 49t-97.5 37q-157 43 -157 160q0 67 56.5 110.5t147.5 43.5z" />
    <glyph glyph-name="Scedilla" unicode="&#x15e;" 
d="M528 197q0 -85 -57.5 -142t-158.5 -68v-39q99 -10 99 -92q0 -50 -38 -79.5t-99 -29.5q-63 0 -103 28l31 63q30 -16 63 -16q49 0 49 34q0 38 -91 38l11 92q-131 10 -217 94l68 76q82 -69 178 -69q57 0 92 27t35 76q0 44 -28 68t-109 49q-110 34 -159 82t-49 126
q0 85 66 138t169 53q135 0 228 -85l-65 -75q-72 59 -155 59q-48 0 -77.5 -21.5t-29.5 -60.5q0 -38 28 -59.5t114 -48.5q102 -32 153.5 -79.5t51.5 -138.5z" />
    <glyph glyph-name="scedilla" unicode="&#x15f;" horiz-adv-x="476" 
d="M449 153q0 -69 -48.5 -111.5t-126.5 -53.5v-40q99 -10 99 -92q0 -50 -38 -79.5t-99 -29.5q-63 0 -103 28l31 63q30 -16 63 -16q49 0 49 34q0 38 -91 38l11 92q-107 8 -181 74l64 72q69 -52 144 -52q43 0 68.5 17t25.5 47q0 33 -22.5 49t-97.5 37q-157 43 -157 160
q0 67 56.5 110.5t147.5 43.5q107 0 188 -63l-50 -75q-68 43 -133 43q-38 0 -59 -14.5t-21 -38.5q0 -27 22 -42t89 -34q86 -23 127.5 -61t41.5 -106z" />
    <glyph glyph-name="Scaron" unicode="&#x160;" 
d="M417 928l49 -56l-139 -120h-80l-139 120l49 56l130 -83zM280 706q135 0 228 -85l-65 -75q-72 59 -155 59q-48 0 -77.5 -21.5t-29.5 -60.5q0 -38 28 -59.5t114 -48.5q102 -32 153.5 -79.5t51.5 -138.5q0 -95 -70 -153.5t-192 -58.5q-152 0 -249 95l68 76q82 -69 178 -69
q57 0 92 27t35 76q0 44 -28 68t-109 49q-110 34 -159 82t-49 126q0 85 66 138t169 53z" />
    <glyph glyph-name="scaron" unicode="&#x161;" horiz-adv-x="476" 
d="M377 800l49 -56l-139 -125h-80l-139 125l49 56l130 -88zM244 544q107 0 188 -63l-50 -75q-68 43 -133 43q-38 0 -59 -14.5t-21 -38.5q0 -27 22 -42t89 -34q86 -23 127.5 -61t41.5 -106q0 -79 -64 -123.5t-159 -44.5q-127 0 -211 75l64 72q69 -52 144 -52q43 0 68.5 17
t25.5 47q0 33 -22.5 49t-97.5 37q-157 43 -157 160q0 67 56.5 110.5t147.5 43.5z" />
    <glyph glyph-name="uni0162" unicode="&#x162;" horiz-adv-x="530" 
d="M331 -52q51 -5 76 -29.5t25 -62.5q0 -50 -39 -79.5t-101 -29.5t-100 28l31 63q30 -16 60 -16q52 0 52 35q0 37 -91 37l13 106h-59v586h-186v105h513l-14 -105h-180v-638z" />
    <glyph glyph-name="uni0163" unicode="&#x163;" horiz-adv-x="375" 
d="M269 -52q99 -10 99 -92q0 -50 -38 -79.5t-99 -29.5q-63 0 -103 28l31 63q30 -16 63 -16q49 0 49 34q0 38 -91 38l12 98q-104 29 -104 166v279h-83v92h83v117l128 15v-132h123l-13 -92h-110v-276q0 -39 13.5 -56t42.5 -17t63 19l45 -82q-48 -34 -111 -39v-38z" />
    <glyph glyph-name="Tcaron" unicode="&#x164;" horiz-adv-x="530" 
d="M395 928l49 -56l-139 -120h-80l-139 120l49 56l130 -83zM525 691l-14 -105h-180v-586h-133v586h-186v105h513z" />
    <glyph glyph-name="tcaron" unicode="&#x165;" horiz-adv-x="375" 
d="M367 765l-53 -201l-71 11l21 204zM335 107l45 -82q-56 -40 -133 -40q-159 2 -159 173v279h-83v92h83v117l128 15v-132h123l-13 -92h-110v-276q0 -39 13.5 -56t42.5 -17t63 19z" />
    <glyph glyph-name="Tbar" unicode="&#x166;" horiz-adv-x="530" 
d="M511 585h-180v-197h120v-82h-120v-307h-133v307h-118v82h118v197h-186v105h513z" />
    <glyph glyph-name="tbar" unicode="&#x167;" horiz-adv-x="375" 
d="M335 107l45 -82q-56 -40 -133 -40q-159 2 -159 173v112h-73v89h73v78h-83v92h83v117l128 15v-132h123l-13 -92h-110v-78h106v-89h-106v-109q0 -39 13.5 -56t42.5 -17t63 19z" />
    <glyph glyph-name="Utilde" unicode="&#x168;" horiz-adv-x="656" 
d="M386 770q-31 0 -66 23.5t-49 23.5q-17 0 -28.5 -10.5t-24.5 -34.5l-69 34q44 104 120 104q33 0 67 -23t49 -23q26 0 53 43l68 -34q-43 -103 -120 -103zM585 691v-465q0 -108 -67.5 -174.5t-190.5 -66.5q-124 0 -190 65.5t-66 175.5v465h132v-458q0 -145 124 -145
q125 0 125 145v458h133z" />
    <glyph glyph-name="utilde" unicode="&#x169;" horiz-adv-x="577" 
d="M344 644q-31 0 -66 23.5t-49 23.5q-17 0 -28.5 -10.5t-24.5 -34.5l-69 34q44 104 120 104q33 0 67 -23t49 -23q26 0 53 43l68 -34q-43 -103 -120 -103zM500 529v-529h-111l-7 74q-58 -89 -162 -89q-71 0 -109.5 43.5t-38.5 120.5v380h128v-364q0 -45 15.5 -64t49.5 -19
q61 0 107 75v372h128z" />
    <glyph glyph-name="Umacron" unicode="&#x16a;" horiz-adv-x="656" 
d="M473 787h-291v91h291v-91zM585 691v-465q0 -108 -67.5 -174.5t-190.5 -66.5q-124 0 -190 65.5t-66 175.5v465h132v-458q0 -145 124 -145q125 0 125 145v458h133z" />
    <glyph glyph-name="umacron" unicode="&#x16b;" horiz-adv-x="577" 
d="M431 661h-291v91h291v-91zM500 529v-529h-111l-7 74q-58 -89 -162 -89q-71 0 -109.5 43.5t-38.5 120.5v380h128v-364q0 -45 15.5 -64t49.5 -19q61 0 107 75v372h128z" />
    <glyph glyph-name="Ubreve" unicode="&#x16c;" horiz-adv-x="656" 
d="M327 754q-68 0 -112 41t-50 103l75 15q22 -67 87 -67q67 0 88 67l76 -15q-6 -62 -50.5 -103t-113.5 -41zM585 691v-465q0 -108 -67.5 -174.5t-190.5 -66.5q-124 0 -190 65.5t-66 175.5v465h132v-458q0 -145 124 -145q125 0 125 145v458h133z" />
    <glyph glyph-name="ubreve" unicode="&#x16d;" horiz-adv-x="577" 
d="M285 637q-69 0 -112.5 43t-49.5 112l75 14q20 -77 87 -77q69 0 88 77l76 -14q-6 -69 -50.5 -112t-113.5 -43zM500 529v-529h-111l-7 74q-58 -89 -162 -89q-71 0 -109.5 43.5t-38.5 120.5v380h128v-364q0 -45 15.5 -64t49.5 -19q61 0 107 75v372h128z" />
    <glyph glyph-name="Uring" unicode="&#x16e;" horiz-adv-x="656" 
d="M328 979q57 0 92 -34.5t35 -85.5q0 -50 -35.5 -85t-91.5 -35q-57 0 -92.5 35t-35.5 85q0 51 35.5 85.5t92.5 34.5zM328 912q-23 0 -36 -14t-13 -39q0 -52 49 -52q22 0 35 13.5t13 38.5t-13 39t-35 14zM585 691v-465q0 -108 -67.5 -174.5t-190.5 -66.5q-124 0 -190 65.5
t-66 175.5v465h132v-458q0 -145 124 -145q125 0 125 145v458h133z" />
    <glyph glyph-name="uring" unicode="&#x16f;" horiz-adv-x="577" 
d="M286 853q57 0 92 -34.5t35 -85.5q0 -50 -35.5 -85t-91.5 -35q-57 0 -92.5 35t-35.5 85q0 51 35.5 85.5t92.5 34.5zM286 786q-23 0 -36 -14t-13 -39q0 -52 49 -52q22 0 35 13.5t13 38.5t-13 39t-35 14zM500 529v-529h-111l-7 74q-58 -89 -162 -89q-71 0 -109.5 43.5
t-38.5 120.5v380h128v-364q0 -45 15.5 -64t49.5 -19q61 0 107 75v372h128z" />
    <glyph glyph-name="Uhungarumlaut" unicode="&#x170;" horiz-adv-x="656" 
d="M287 973l94 -46l-105 -167l-72 30zM452 973l93 -48l-115 -170l-70 32zM585 691v-465q0 -108 -67.5 -174.5t-190.5 -66.5q-124 0 -190 65.5t-66 175.5v465h132v-458q0 -145 124 -145q125 0 125 145v458h133z" />
    <glyph glyph-name="uhungarumlaut" unicode="&#x171;" horiz-adv-x="577" 
d="M246 847l94 -46l-105 -167l-72 30zM411 847l93 -48l-115 -170l-70 32zM500 529v-529h-111l-7 74q-58 -89 -162 -89q-71 0 -109.5 43.5t-38.5 120.5v380h128v-364q0 -45 15.5 -64t49.5 -19q61 0 107 75v372h128z" />
    <glyph glyph-name="Uogonek" unicode="&#x172;" horiz-adv-x="656" 
d="M452 691h133v-465q0 -83 -40.5 -143t-117.5 -84q-68 -28 -93 -53.5t-25 -53.5q0 -46 54 -46q29 0 61 7l-10 -85q-37 -7 -67 -7q-61 0 -99 30t-38 79q0 74 89 116q-111 7 -169.5 72t-58.5 168v465h132v-458q0 -145 124 -145q125 0 125 145v458z" />
    <glyph glyph-name="uogonek" unicode="&#x173;" horiz-adv-x="577" 
d="M500 0q-121 -48 -121 -108q0 -46 55 -46q27 0 61 7l-10 -85q-37 -7 -67 -7q-61 0 -99 30t-38 79q0 86 107 139l-6 65q-58 -89 -162 -89q-71 0 -109.5 43.5t-38.5 120.5v380h128v-364q0 -45 15.5 -64t49.5 -19q61 0 107 75v372h128v-529z" />
    <glyph glyph-name="Wcircumflex" unicode="&#x174;" horiz-adv-x="837" 
d="M288 757l-49 55l139 121h80l139 -121l-49 -55l-130 82zM821 691l-127 -691h-172l-105 551l-108 -551h-167l-125 691h131l88 -586l113 586h140l111 -586l96 586h125z" />
    <glyph glyph-name="wcircumflex" unicode="&#x175;" horiz-adv-x="734" 
d="M237 627l-49 55l138 126h81l139 -126l-49 -55l-130 88zM723 529l-115 -529h-160l-80 415l-82 -415h-157l-117 529h128l74 -435l92 435h131l84 -435l79 435h123z" />
    <glyph glyph-name="Ycircumflex" unicode="&#x176;" horiz-adv-x="574" 
d="M156 757l-49 55l139 121h80l139 -121l-49 -55l-130 82zM576 691l-222 -429v-262h-134v261l-222 430h146l146 -321l146 321h140z" />
    <glyph glyph-name="ycircumflex" unicode="&#x177;" horiz-adv-x="506" 
d="M123 627l-49 55l138 126h81l139 -126l-49 -55l-130 88zM505 529l-172 -531q-32 -98 -97 -152.5t-178 -63.5l-13 93q76 12 110.5 39t58.5 86h-44l-168 529h136l115 -444l120 444h132z" />
    <glyph glyph-name="Ydieresis" unicode="&#x178;" horiz-adv-x="574" 
d="M176 911q29 0 49 -20t20 -49t-20 -49t-49 -20q-30 0 -50.5 20t-20.5 49t20.5 49t50.5 20zM397 911q30 0 50 -20t20 -49t-20 -49t-50 -20q-29 0 -49.5 20t-20.5 49t20.5 49t49.5 20zM576 691l-222 -429v-262h-134v261l-222 430h146l146 -321l146 321h140z" />
    <glyph glyph-name="Zacute" unicode="&#x179;" horiz-adv-x="534" 
d="M355 936l50 -100l-229 -83l-33 66zM496 691v-102l-319 -481h322l-14 -108h-462v101l325 485h-292v105h440z" />
    <glyph glyph-name="zacute" unicode="&#x17a;" horiz-adv-x="449" 
d="M302 820l52 -100l-226 -90l-36 65zM421 529v-92l-256 -337h261l-13 -100h-395v92l257 337h-235v100h381z" />
    <glyph glyph-name="Zdotaccent" unicode="&#x17b;" horiz-adv-x="534" 
d="M273 923q36 0 58.5 -22.5t22.5 -55.5t-22.5 -55t-58.5 -22q-35 0 -57.5 22t-22.5 55t22.5 55.5t57.5 22.5zM496 691v-102l-319 -481h322l-14 -108h-462v101l325 485h-292v105h440z" />
    <glyph glyph-name="zdotaccent" unicode="&#x17c;" horiz-adv-x="449" 
d="M225 797q36 0 58.5 -22.5t22.5 -55.5t-22.5 -55t-58.5 -22q-35 0 -57.5 22t-22.5 55t22.5 55.5t57.5 22.5zM421 529v-92l-256 -337h261l-13 -100h-395v92l257 337h-235v100h381z" />
    <glyph glyph-name="Zcaron" unicode="&#x17d;" horiz-adv-x="534" 
d="M404 928l49 -56l-139 -120h-80l-139 120l49 56l130 -83zM496 691v-102l-319 -481h322l-14 -108h-462v101l325 485h-292v105h440z" />
    <glyph glyph-name="zcaron" unicode="&#x17e;" horiz-adv-x="449" 
d="M356 800l49 -56l-139 -125h-80l-139 125l49 56l130 -88zM421 529v-92l-256 -337h261l-13 -100h-395v92l257 337h-235v100h381z" />
    <glyph glyph-name="longs" unicode="&#x17f;" horiz-adv-x="347" 
d="M278 755q70 0 137 -31l-37 -86q-43 20 -87 20q-38 0 -54.5 -17.5t-16.5 -55.5v-585h-128v437h-86v92h86v58q0 75 48.5 121.5t137.5 46.5z" />
    <glyph glyph-name="uni0180" unicode="&#x180;" horiz-adv-x="603" 
d="M358 544q92 0 144 -73.5t52 -205.5q0 -125 -56.5 -202.5t-152.5 -77.5q-85 0 -140 69l-8 -54h-113v601h-69v82h69v58l128 14v-72h140v-82h-140v-132q54 75 146 75zM310 81q110 0 110 184q0 100 -27 141.5t-76 41.5q-61 0 -105 -72v-234q37 -61 98 -61z" />
    <glyph glyph-name="uni0181" unicode="&#x181;" horiz-adv-x="728" 
d="M535 366q33 -6 58.5 -16.5t49.5 -29t37 -49.5t13 -72q0 -199 -289 -199h-208v593h-30q-50 0 -50 -45q0 -26 17 -69l-84 -39q-42 64 -42 114q0 63 44 100t122 37h204q286 0 286 -176q0 -61 -37 -99.5t-91 -49.5zM390 594h-62v-187h81q55 0 87 24.5t32 72.5q0 50 -33.5 70
t-104.5 20zM405 99q73 0 111.5 22t38.5 83q0 111 -136 111h-91v-216h77z" />
    <glyph glyph-name="uni0182" unicode="&#x182;" horiz-adv-x="588" 
d="M295 439q129 0 199.5 -54t70.5 -160q0 -114 -73 -169.5t-197 -55.5h-214v691h406l-14 -103h-260v-149h82zM291 99q65 0 100 28.5t35 95.5q0 120 -138 120h-75v-244h78z" />
    <glyph glyph-name="uni0183" unicode="&#x183;" horiz-adv-x="596" 
d="M349 537q94 0 146 -72.5t52 -203.5q0 -123 -56.5 -199.5t-152.5 -76.5q-85 0 -140 69l-8 -54h-113v741h349l-15 -94h-206v-185q54 75 144 75zM304 81q109 0 109 180q0 98 -27 139t-76 41q-61 0 -105 -71v-228q37 -61 99 -61z" />
    <glyph glyph-name="uni0184" unicode="&#x184;" horiz-adv-x="596" 
d="M306 447q129 0 199.5 -54.5t70.5 -163.5q0 -116 -73 -172.5t-197 -56.5h-214v506l-72 47q53 56 91 138h114v-244h81zM303 99q65 0 99.5 29t34.5 99q0 65 -34.5 94.5t-103.5 29.5h-74v-252h78z" />
    <glyph glyph-name="uni0185" unicode="&#x185;" horiz-adv-x="531" 
d="M269 362q237 0 237 -181q0 -89 -60.5 -135t-155.5 -46h-201v354l-73 47q56 57 91 128h110v-167h52zM277 89q97 0 97 94q0 47 -24 69.5t-83 22.5h-50v-186h60z" />
    <glyph glyph-name="uni0186" unicode="&#x186;" horiz-adv-x="568" 
d="M241 706q131 0 207.5 -94t76.5 -265q0 -172 -82.5 -267t-219.5 -95q-120 0 -210 84l63 77q37 -27 68.5 -41t72.5 -14q78 0 123.5 62t45.5 194q0 257 -153 257q-77 0 -147 -49l-65 78q93 73 220 73z" />
    <glyph glyph-name="uni0187" unicode="&#x187;" horiz-adv-x="568" 
d="M590 843q70 0 126 -38l-41 -81q-37 21 -71 21q-57 0 -57 -67v-45l-59 -69q-67 40 -137 40q-77 0 -123 -62t-46 -195q0 -131 46 -193.5t125 -62.5q63 0 140 58l62 -80q-82 -84 -208 -84q-138 0 -221 95t-83 267q0 168 84 263.5t208 95.5q54 0 94 -17q3 74 44 114t117 40z
" />
    <glyph glyph-name="uni0188" unicode="&#x188;" horiz-adv-x="478" 
d="M505 755q70 0 126 -38l-41 -80q-37 21 -71 21q-57 0 -57 -68v-108l-49 -67q-53 28 -113 28q-121 0 -121 -181q0 -173 119 -173q48 0 107 38l57 -81q-75 -61 -171 -61q-115 0 -181.5 74t-66.5 201t65.5 205.5t171.5 78.5q38 0 64 -10v57q0 79 42 121.5t119 42.5z" />
    <glyph glyph-name="uni0189" unicode="&#x189;" horiz-adv-x="661" 
d="M264 691q59 0 107 -8t95.5 -30.5t79.5 -59.5t52 -99t20 -145q0 -100 -28.5 -171.5t-78.5 -108.5t-106 -53t-123 -16h-188v310h-77v86h77v295h170zM291 99q42 0 73.5 11t58.5 37t41.5 77t14.5 125q0 75 -15 125t-43.5 75t-59.5 34t-74 9h-61v-196h145v-86h-145v-211h65z
" />
    <glyph glyph-name="uni018A" unicode="&#x18a;" horiz-adv-x="763" 
d="M366 691q59 0 107 -8t95.5 -30.5t79.5 -59.5t52 -99t20 -145q0 -100 -28.5 -171.5t-78.5 -108.5t-106 -53t-123 -16h-188v593h-30q-50 0 -50 -45q0 -26 17 -69l-84 -39q-42 64 -42 114q0 63 44 100t122 37h193zM393 99q42 0 73.5 11t58.5 37t41.5 77t14.5 125
q0 75 -15 125t-43.5 75t-59.5 34t-74 9h-61v-493h65z" />
    <glyph glyph-name="uni018B" unicode="&#x18b;" horiz-adv-x="588" 
d="M508 691l-1 -1v-690h-222q-120 0 -191 53.5t-71 164.5q0 106 71.5 163.5t198.5 57.5h82v149h-268v103h401zM297 99h78v244h-75q-138 0 -138 -125q0 -65 35 -92t100 -27z" />
    <glyph glyph-name="uni018C" unicode="&#x18c;" horiz-adv-x="599" 
d="M522 741v-741h-113l-9 67q-55 -82 -151 -82q-97 0 -149 74.5t-52 201.5q0 122 58 199t157 77q74 0 131 -57v167h-213v94h341zM285 82q64 0 109 68v235q-46 56 -100 56q-52 0 -81.5 -45t-29.5 -135q0 -179 102 -179z" />
    <glyph glyph-name="uni018D" unicode="&#x18d;" horiz-adv-x="578" 
d="M383 69q55 -30 76 -62.5t21 -77.5q0 -63 -51 -106t-146 -43q-107 0 -185 58l61 72q55 -37 113 -37q82 0 82 58q0 29 -20.5 47t-88.5 47q-105 43 -153.5 101.5t-48.5 157.5q0 113 67 186.5t179 73.5q113 0 179.5 -68t66.5 -187q0 -146 -152 -220zM178 283q0 -72 27 -109
t107 -73q89 66 89 184q0 162 -111 162q-112 0 -112 -164z" />
    <glyph glyph-name="uni018E" unicode="&#x18e;" horiz-adv-x="530" 
d="M50 691h399v-691h-405v99h273v203h-222v98h222v193h-267v98z" />
    <glyph glyph-name="uni018F" unicode="&#x18f;" horiz-adv-x="644" 
d="M312 706q137 0 213 -89t76 -263q0 -181 -77.5 -275t-208.5 -94q-140 0 -211 91.5t-71 260.5q0 21 4 59h428q-7 209 -163 209q-87 0 -168 -61l-62 75q102 87 240 87zM312 85q70 0 109 51t44 164h-303q3 -215 150 -215z" />
    <glyph glyph-name="uni0190" unicode="&#x190;" horiz-adv-x="532" 
d="M286 706q130 0 224 -89l-67 -71q-67 60 -144 60q-54 0 -80 -26t-26 -67q0 -46 31.5 -72.5t85.5 -26.5h71l-17 -99h-52q-68 0 -102.5 -29.5t-34.5 -83.5t34.5 -84t96.5 -30q85 0 149 64l74 -71q-88 -96 -234 -96q-114 0 -187 58.5t-73 152.5q0 76 45.5 120t121.5 52
q-70 15 -107.5 56t-37.5 103q0 78 62 128.5t167 50.5z" />
    <glyph glyph-name="uni0191" unicode="&#x191;" horiz-adv-x="489" 
d="M458 593h-245v-207h213v-98h-213v-331q0 -86 -47.5 -130.5t-130.5 -44.5q-75 0 -129 41l46 80q37 -21 71 -21q58 0 58 67v742h391z" />
    <glyph glyph-name="florin" unicode="&#x192;" horiz-adv-x="358" 
d="M300 658q-41 0 -57.5 -17t-16.5 -56v-56h127l-14 -92h-113v-390q0 -59 -12.5 -102t-40 -73t-59 -49.5t-80.5 -39.5l-41 93q39 18 58.5 33.5t33 47.5t13.5 82v398h-83v92h83v58q0 75 48.5 121.5t137.5 46.5q72 0 142 -31l-37 -86q-45 20 -89 20z" />
    <glyph glyph-name="uni0193" unicode="&#x193;" horiz-adv-x="602" 
d="M624 843q68 0 126 -38l-42 -81q-37 21 -70 21q-58 0 -58 -67v-53l-64 -67q-78 48 -152 48q-80 0 -131 -64t-51 -196q0 -138 40.5 -199t123.5 -61q63 0 110 27v180h-104l-14 98h248v-338q-108 -68 -243 -68q-145 0 -222.5 92t-77.5 269q0 167 89 263.5t212 96.5
q71 0 119 -24q1 77 42 119t119 42z" />
    <glyph glyph-name="uni0194" unicode="&#x194;" horiz-adv-x="562" 
d="M567 691l-212 -609q35 -62 50 -102.5t15 -83.5q0 -54 -34 -84t-103 -30t-103 30t-34 84q0 37 15 78t50 108l-216 609h142l147 -521l148 521h135zM313 -94q0 31 -30 101q-30 -68 -30 -102q0 -33 30 -33t30 34z" />
    <glyph glyph-name="uni0195" unicode="&#x195;" horiz-adv-x="877" 
d="M794 529q28 -147 28 -278q0 -132 -73 -199t-174 -67q-84 0 -139 48t-55 140v190q0 47 -16.5 66t-48.5 19q-60 0 -111 -79v-369h-128v740l128 13v-287q64 78 154 78q70 0 110 -43t40 -118v-206q0 -95 74 -95q45 0 77.5 42.5t32.5 137.5q0 128 -26 267h127z" />
    <glyph glyph-name="uni0196" unicode="&#x196;" horiz-adv-x="380" 
d="M332 106l46 -80q-54 -41 -129 -41q-83 0 -130.5 44.5t-47.5 130.5v531h132v-539q0 -67 58 -67q34 0 71 21z" />
    <glyph glyph-name="uni0197" unicode="&#x197;" horiz-adv-x="322" 
d="M312 409v-99h-85v-310h-132v310h-85v99h85v282h132v-282h85z" />
    <glyph glyph-name="uni0198" unicode="&#x198;" horiz-adv-x="637" 
d="M463 0l-244 369l152 231q37 58 73.5 82t92.5 24q61 0 106 -36l-39 -79q-26 16 -52 16q-23 0 -39 -10.5t-38 -44.5l-114 -174l259 -378h-157zM213 691v-691h-132v691h132z" />
    <glyph glyph-name="uni0199" unicode="&#x199;" horiz-adv-x="534" 
d="M275 658q-38 0 -54 -17.5t-16 -55.5v-585h-128v587q0 75 48.5 121.5t137.5 46.5q71 0 136 -31l-37 -86q-43 20 -87 20zM346 296l193 -296h-147l-182 289l177 240h135z" />
    <glyph glyph-name="uni019A" unicode="&#x19a;" horiz-adv-x="326" 
d="M286 93l27 -90q-40 -18 -85 -18q-61 0 -95.5 35.5t-34.5 100.5v205h-88v92h88v323l128 14v-337h86v-92h-86v-201q0 -37 30 -37q15 0 30 5z" />
    <glyph glyph-name="uni019B" unicode="&#x19b;" horiz-adv-x="511" 
d="M362 464q44 -189 78 -278t88 -158l-122 -43q-53 78 -85.5 166t-65.5 254l-116 -420l-126 30l161 478h65q-14 58 -30 90l-60 -56l-76 44l77 72q-33 17 -85 24l16 88q96 -16 144 -47l69 65l60 -62l-66 -61q44 -62 74 -186z" />
    <glyph glyph-name="uni019C" unicode="&#x19c;" horiz-adv-x="923" 
d="M710 691h133v-691h-116l-10 71q-67 -86 -159 -86q-105 0 -148 95q-77 -95 -172 -95q-79 0 -123 54.5t-44 143.5v508h132v-503q0 -48 19 -74.5t54 -26.5q33 0 58.5 18.5t55.5 60.5v17v508h133v-503q0 -48 19 -74.5t53 -26.5q35 0 60 18.5t55 61.5v524z" />
    <glyph glyph-name="uni019D" unicode="&#x19d;" horiz-adv-x="672" 
d="M471 691h120v-691h-171l-237 559q18 -157 18 -277v-326q0 -85 -45.5 -129.5t-122.5 -44.5q-76 0 -130 41l46 78q36 -22 72 -22q60 0 60 67v745h167l241 -560q-18 114 -18 236v324z" />
    <glyph glyph-name="uni019E" unicode="&#x19e;" horiz-adv-x="581" 
d="M359 544q71 0 110.5 -42.5t39.5 -118.5v-601l-128 14v567q0 47 -16.5 66t-48.5 19q-60 0 -111 -80v-368h-128v529h111l10 -69q65 84 161 84z" />
    <glyph glyph-name="uni019F" unicode="&#x19f;" horiz-adv-x="691" 
d="M346 706q140 0 221 -94.5t81 -265.5q0 -170 -81 -265.5t-221 -95.5t-221.5 94.5t-81.5 265.5q0 169 81.5 265t221.5 96zM346 605q-152 0 -166 -213h332q-14 213 -166 213zM346 86q155 0 166 224h-333q11 -224 167 -224z" />
    <glyph glyph-name="Ohorn" unicode="&#x1a0;" horiz-adv-x="710" 
d="M691 688q0 -95 -96 -115q53 -90 53 -227q0 -170 -81 -265.5t-221 -95.5t-221.5 94.5t-81.5 265.5q0 169 81.5 265t221.5 96q122 0 200 -72q51 7 51 54q0 35 -14 70l89 15q19 -36 19 -85zM346 86q163 0 163 260q0 135 -41.5 197t-121.5 62q-164 0 -164 -260
q0 -259 164 -259z" />
    <glyph glyph-name="ohorn" unicode="&#x1a1;" horiz-adv-x="611" 
d="M615 523q0 -96 -101 -115q27 -60 27 -143q0 -127 -66.5 -203.5t-182.5 -76.5q-117 0 -183 74.5t-66 205.5q0 126 67 202.5t183 76.5q114 0 180 -71q48 6 48 51q0 34 -14 69l89 15q19 -36 19 -85zM292 82q114 0 114 183q0 182 -113 182q-115 0 -115 -182q0 -183 114 -183z
" />
    <glyph glyph-name="uni01A2" unicode="&#x1a2;" horiz-adv-x="945" 
d="M679 707q89 0 137 -45.5t48 -131.5v-736h-133v741q0 76 -66 76q-42 0 -84 -21q67 -93 67 -244q0 -170 -81 -265.5t-221 -95.5t-221.5 94.5t-81.5 265.5q0 169 81.5 265t221.5 96q99 0 172 -52q78 53 161 53zM346 86q163 0 163 260q0 135 -41.5 197t-121.5 62
q-164 0 -164 -260q0 -259 164 -259z" />
    <glyph glyph-name="uni01A3" unicode="&#x1a3;" horiz-adv-x="812" 
d="M560 544q83 0 129 -45.5t46 -131.5v-585l-128 14v579q0 73 -63 73q-23 0 -49 -8q46 -71 46 -175q0 -127 -66.5 -203.5t-182.5 -76.5q-117 0 -183 74.5t-66 205.5q0 126 67 202.5t183 76.5q77 0 133 -36q63 36 134 36zM292 82q114 0 114 183q0 182 -113 182
q-115 0 -115 -182q0 -183 114 -183z" />
    <glyph glyph-name="uni01A4" unicode="&#x1a4;" horiz-adv-x="706" 
d="M400 691q133 0 206.5 -55t73.5 -165q0 -115 -74 -172.5t-197 -57.5h-81v-241h-132v593h-30q-50 0 -50 -45q0 -26 17 -69l-84 -39q-42 64 -42 114q0 63 44 100t122 37h227zM399 340q71 0 107 29.5t36 101.5q0 123 -143 123h-71v-254h71z" />
    <glyph glyph-name="uni01A5" unicode="&#x1a5;" horiz-adv-x="596" 
d="M349 544q198 0 198 -278q0 -125 -55.5 -203t-153.5 -78q-84 0 -133 58v-247l-128 -14v805q0 75 48.5 121.5t137.5 46.5q71 0 136 -31l-37 -86q-43 20 -87 20q-38 0 -54 -17.5t-16 -55.5v-115q58 74 144 74zM302 83q111 0 111 182q0 98 -25.5 140.5t-76.5 42.5
q-62 0 -106 -72v-238q37 -55 97 -55z" />
    <glyph glyph-name="uni01A6" unicode="&#x1a6;" horiz-adv-x="611" 
d="M450 -118l-153 277h-84v-159h-132v691h132v-118h74q274 0 274 -203q0 -69 -34 -114t-106 -73l181 -301h-152zM213 477v-223h82q128 0 128 116q0 56 -33.5 81.5t-105.5 25.5h-71z" />
    <glyph glyph-name="uni01A7" unicode="&#x1a7;" horiz-adv-x="551" 
d="M286 706q104 0 167 -51t63 -135q0 -78 -50 -125.5t-160 -81.5q-78 -24 -107 -52.5t-29 -72.5q0 -48 33 -74t87 -26q94 0 176 67l68 -75q-98 -95 -252 -95q-113 0 -181.5 58.5t-68.5 149.5q0 88 51.5 135.5t153.5 79.5q84 27 113 51.5t29 65.5q0 80 -101 80
q-86 0 -159 -58l-65 74q99 85 232 85z" />
    <glyph glyph-name="uni01A8" unicode="&#x1a8;" horiz-adv-x="466" 
d="M242 544q89 0 141.5 -43t52.5 -110q0 -62 -37.5 -97.5t-121.5 -59.5q-71 -20 -94 -38t-23 -50q0 -31 23.5 -48.5t61.5 -17.5q72 0 143 51l63 -71q-84 -75 -211 -75q-90 0 -151.5 44t-61.5 122q0 68 41.5 104.5t128.5 59.5q66 18 87.5 35t21.5 47q0 24 -19.5 38t-56.5 14
q-69 0 -137 -42l-49 74q89 63 198 63z" />
    <glyph glyph-name="uni01A9" unicode="&#x1a9;" horiz-adv-x="503" 
d="M473 691v-100h-296l183 -218v-64l-184 -207h297v-102h-443v100l206 239l-206 252v100h443z" />
    <glyph glyph-name="uni01AA" unicode="&#x1aa;" horiz-adv-x="360" 
d="M415 -101l45 -76q-52 -41 -129 -41q-81 0 -128.5 45t-47.5 130v498q-31 -11 -59 -11q-64 0 -105 42.5t-41 111.5q0 70 45 113.5t118 43.5q79 0 124.5 -44t45.5 -124v-641q0 -67 60 -67q34 0 72 20zM119 537q14 0 36 5v61q0 59 -44 59t-44 -61q0 -64 52 -64z" />
    <glyph glyph-name="uni01AB" unicode="&#x1ab;" horiz-adv-x="375" 
d="M343 94l37 -69v-68q0 -85 -46 -129.5t-128 -44.5q-77 0 -132 40l46 78q41 -22 78 -22q66 0 66 67v42q-10 -3 -23 -3q-73 1 -113 45t-40 128v279h-83v92h83v117l128 15v-132h123l-13 -92h-110v-284q0 -38 13.5 -54.5t44.5 -16.5q30 0 69 12z" />
    <glyph glyph-name="uni01AC" unicode="&#x1ac;" horiz-adv-x="577" 
d="M572 691l-14 -105h-180v-586h-132v586h-79q-49 0 -49 -43q0 -22 17 -62l-91 -42q-37 60 -37 114q0 64 45.5 101t125.5 37h394z" />
    <glyph glyph-name="uni01AD" unicode="&#x1ad;" horiz-adv-x="375" 
d="M335 108l45 -83q-56 -40 -133 -40q-159 2 -159 173v279h-83v92h83v55q0 80 44.5 125.5t123.5 45.5q67 0 123 -38l-41 -77q-37 21 -68 21q-54 0 -54 -67v-65h123l-13 -92h-110v-276q0 -39 13.5 -56t42.5 -17q30 0 63 20z" />
    <glyph glyph-name="uni01AE" unicode="&#x1ae;" horiz-adv-x="531" 
d="M331 -51q0 -67 58 -67q34 0 71 21l46 -80q-54 -41 -129 -41q-83 0 -130.5 44.5t-47.5 130.5v43h-1v586h-186v105h513l-14 -105h-180v-637z" />
    <glyph glyph-name="Uhorn" unicode="&#x1af;" horiz-adv-x="703" 
d="M704 773q19 -36 19 -85q0 -58 -36 -87.5t-102 -31.5v-343q0 -108 -67.5 -174.5t-190.5 -66.5q-124 0 -190 65.5t-66 175.5v465h132v-458q0 -145 124 -145q125 0 125 145v458h133v-56q44 9 44 53q0 35 -14 70z" />
    <glyph glyph-name="uhorn" unicode="&#x1b0;" horiz-adv-x="624" 
d="M619 608q19 -36 19 -85q0 -57 -36 -86.5t-102 -31.5v-405h-111l-7 74q-58 -89 -162 -89q-71 0 -109.5 43.5t-38.5 120.5v380h128v-364q0 -45 15.5 -64t49.5 -19q61 0 107 75v372h128v-56q44 7 44 51q0 34 -14 69z" />
    <glyph glyph-name="uni01B1" unicode="&#x1b1;" horiz-adv-x="691" 
d="M346 -15q-139 0 -221 89t-82 234q0 103 34.5 169.5t95.5 114.5h-108v99h220v-96q-53 -51 -78 -115.5t-25 -171.5q0 -110 42 -166t122 -56q78 0 120.5 56.5t42.5 166.5q0 105 -25.5 169.5t-76.5 116.5v96h220v-99h-108q129 -92 129 -283q0 -143 -83 -233.5t-219 -90.5z
" />
    <glyph glyph-name="uni01B2" unicode="&#x1b2;" horiz-adv-x="656" 
d="M448 706q137 0 137 -148v-262q0 -144 -75.5 -227.5t-201.5 -83.5q-110 0 -173.5 63.5t-63.5 164.5v478h132v-476q0 -60 28 -93.5t79 -33.5q68 0 105 52.5t37 157.5v263q0 25 -7.5 35t-26.5 10q-18 0 -32 -6l-25 88q39 18 87 18z" />
    <glyph glyph-name="uni01B3" unicode="&#x1b3;" horiz-adv-x="611" 
d="M220 0v261l-222 430h146l146 -321l88 205q28 71 66 101t100 30q60 0 114 -38l-41 -76q-27 18 -58 18q-23 0 -38.5 -13t-31.5 -48l-135 -287v-262h-134z" />
    <glyph glyph-name="uni01B4" unicode="&#x1b4;" horiz-adv-x="512" 
d="M58 -218l-13 93q76 12 110.5 39t58.5 86h-44l-168 529h136l115 -444l87 364q16 70 46.5 100t88.5 30q40 0 77 -16l-26 -85q-13 5 -30 5t-26.5 -9t-16.5 -33l-112 -424q-28 -110 -97 -168t-186 -67z" />
    <glyph glyph-name="uni01B5" unicode="&#x1b5;" horiz-adv-x="534" 
d="M167 108h332l-14 -108h-462v98l140 204h-84v91h146l132 193h-301v105h440v-99l-135 -199h91v-91h-153z" />
    <glyph glyph-name="uni01B6" unicode="&#x1b6;" horiz-adv-x="449" 
d="M160 97h266l-13 -97h-395v89l105 137h-72v85h137l92 121h-240v97h381v-89l-98 -129h70v-85h-135z" />
    <glyph glyph-name="uni01B7" unicode="&#x1b7;" horiz-adv-x="533" 
d="M273 400q110 -1 167.5 -53t57.5 -145q0 -95 -70.5 -156t-191.5 -61q-147 0 -229 97l71 69q64 -64 151 -64q63 0 97 31.5t34 87.5q0 59 -34.5 85t-104.5 26h-94v81l191 193h-276v100h426v-98z" />
    <glyph glyph-name="uni01B8" unicode="&#x1b8;" horiz-adv-x="533" 
d="M455 151l71 -69q-83 -97 -236 -97q-116 0 -185.5 59t-69.5 153q0 90 59.5 145.5t164.5 57.5l-194 193v98h425v-100h-274l190 -194v-80h-94q-140 0 -140 -117q0 -52 33 -82.5t92 -30.5q94 0 158 64z" />
    <glyph glyph-name="uni01B9" unicode="&#x1b9;" horiz-adv-x="497" 
d="M435 -56l68 -65q-86 -97 -226 -97q-115 0 -184.5 61t-69.5 156q0 98 59.5 152.5t166.5 58.5l-197 228v91h416v-99h-271l186 -223v-79h-86q-72 0 -106 -30t-34 -94q0 -58 33.5 -90t92.5 -32q83 0 152 62z" />
    <glyph glyph-name="uni01BA" unicode="&#x1ba;" horiz-adv-x="491" 
d="M175 -219q-147 53 -147 147q0 53 41 82.5t128 43.5q74 11 105.5 29t31.5 55q0 58 -82 58h-141v77l174 161h-262v95h413v-87l-186 -166h39q84 0 131.5 -37t47.5 -104q0 -140 -200 -169q-71 -11 -94.5 -22t-23.5 -30q0 -28 61 -58z" />
    <glyph glyph-name="uni01BB" unicode="&#x1bb;" horiz-adv-x="507" 
d="M179 101h288l-14 -101h-419v94l146 151h-112v91h191q61 80 61 150q0 46 -26.5 72t-70.5 26q-39 0 -68.5 -16.5t-61.5 -54.5l-78 62q85 110 218 110q101 0 160 -54t59 -135t-54 -160h62v-91h-137q-56 -61 -144 -144z" />
    <glyph glyph-name="uni01BC" unicode="&#x1bc;" horiz-adv-x="528" 
d="M462 691l-16 -94h-259v-177q53 26 111 26q85 0 138.5 -59t53.5 -163q0 -108 -69.5 -173.5t-185.5 -65.5q-129 0 -216 95l72 68q61 -64 141 -64q60 0 93 36t33 105q0 129 -107 129q-43 0 -95 -23h-92v360h398z" />
    <glyph glyph-name="uni01BD" unicode="&#x1bd;" horiz-adv-x="467" 
d="M402 529l-20 -97h-202v-102q40 17 86 17q72 0 120 -47t48 -127q0 -84 -60.5 -136t-160.5 -52q-110 0 -190 77l67 71q33 -26 58 -36.5t62 -10.5q42 0 67 23t25 66q0 41 -20.5 60.5t-54.5 19.5q-40 0 -78 -17h-86v291h339z" />
    <glyph glyph-name="uni01BE" unicode="&#x1be;" horiz-adv-x="513" 
d="M307 434q72 -19 117 -71.5t45 -145.5q0 -103 -65.5 -167t-172.5 -64q-121 0 -215 89l66 67q65 -59 136 -59q58 0 88 35.5t30 100.5q0 67 -30 104t-93 53l-62 14v147h-74v82h74v121l128 13v-134h102v-82h-102v-98z" />
    <glyph glyph-name="uni01BF" unicode="&#x1bf;" horiz-adv-x="591" 
d="M369 544q78 0 128 -51.5t50 -139.5q0 -51 -14 -94t-36 -74.5t-60 -62t-74.5 -52t-89.5 -48.5l-68 -34v-192l-128 -14v747h112l8 -70q70 85 172 85zM252 112q82 48 121.5 104t39.5 135q0 97 -82 97q-68 0 -126 -63v-300z" />
    <glyph glyph-name="uni01C0" unicode="&#x1c0;" horiz-adv-x="275" 
d="M194 753v-753h-113v741z" />
    <glyph glyph-name="uni01C1" unicode="&#x1c1;" horiz-adv-x="464" 
d="M194 753v-753h-113v741zM383 753v-753h-113v741z" />
    <glyph glyph-name="uni01C2" unicode="&#x1c2;" horiz-adv-x="322" 
d="M312 402h-94v-71h94v-78h-94v-253h-113v253h-95v78h95v71h-95v78h95v261l113 12v-273h94v-78z" />
    <glyph glyph-name="uni01C3" unicode="&#x1c3;" horiz-adv-x="323" 
d="M218 753v-529h-114v517zM161 147q34 0 57.5 -23.5t23.5 -57.5q0 -33 -23.5 -57t-57.5 -24q-33 0 -56.5 24t-23.5 57q0 34 23 57.5t57 23.5z" />
    <glyph glyph-name="uni01C4" unicode="&#x1c4;" horiz-adv-x="1157" 
d="M1027 928l49 -56l-139 -120h-80l-139 120l49 56l130 -83zM251 691q59 0 107 -8t95.5 -30.5t79.5 -59.5t52 -99t20 -145q0 -100 -28.5 -171.5t-78.5 -108.5t-106 -53t-123 -16h-188v691h170zM1119 691v-102l-319 -481h322l-14 -108h-462v101l325 485h-292v105h440z
M274 592h-61v-493h65q42 0 73.5 11t58.5 37t41.5 77t14.5 125q0 75 -15 125t-43.5 75t-59.5 34t-74 9z" />
    <glyph glyph-name="uni01C5" unicode="&#x1c5;" horiz-adv-x="1087" 
d="M994 800l49 -56l-139 -125h-80l-139 125l49 56l130 -88zM251 691q59 0 107 -8t95.5 -30.5t79.5 -59.5t52 -99t20 -145q0 -100 -28.5 -171.5t-78.5 -108.5t-106 -53t-123 -16h-188v691h170zM274 592h-61v-493h65q42 0 73.5 11t58.5 37t41.5 77t14.5 125q0 75 -15 125
t-43.5 75t-59.5 34t-74 9zM1059 529v-92l-256 -337h261l-13 -100h-395v92l257 337h-235v100h381z" />
    <glyph glyph-name="uni01C6" unicode="&#x1c6;" horiz-adv-x="1048" 
d="M865 619h-80l-139 125l49 56l130 -88l130 88l49 -56zM394 487v268l128 -14v-741h-113l-9 67q-55 -82 -151 -82q-97 0 -149 75t-52 204q0 124 58 202t155 78q76 0 133 -57zM764 100h261l-13 -100h-395v92l257 337h-235v100h381v-92zM285 82q64 0 109 68v242
q-46 56 -101 56q-51 0 -80.5 -45.5t-29.5 -137.5q0 -183 102 -183z" />
    <glyph glyph-name="uni01C7" unicode="&#x1c7;" horiz-adv-x="797" 
d="M213 691v-583h277l-15 -108h-394v691h132zM720 691v-590q0 -58 -15 -102t-44.5 -73t-63 -47.5t-80.5 -33.5l-35 95q64 25 84.5 60.5t20.5 105.5v585h133z" />
    <glyph glyph-name="uni01C8" unicode="&#x1c8;" horiz-adv-x="772" 
d="M630 797q36 0 58.5 -22.5t22.5 -55.5t-22.5 -55t-58.5 -22q-35 0 -57.5 22t-22.5 55t22.5 55.5t57.5 22.5zM213 691v-583h277l-15 -108h-394v691h132zM695 529v-482q0 -113 -46.5 -168.5t-146.5 -95.5l-41 93q58 27 82 59t24 104v490h128z" />
    <glyph glyph-name="uni01C9" unicode="&#x1c9;" horiz-adv-x="576" 
d="M434 797q36 0 58.5 -22.5t22.5 -55.5t-22.5 -55t-58.5 -22q-35 0 -57.5 22t-22.5 55t22.5 55.5t57.5 22.5zM202 -15q-61 0 -95.5 35.5t-34.5 100.5v620l128 14v-630q0 -37 30 -37q15 0 30 5l27 -90q-40 -18 -85 -18zM499 529v-482q0 -113 -46.5 -168.5t-146.5 -95.5
l-41 93q58 27 82 59t24 104v490h128z" />
    <glyph glyph-name="uni01CA" unicode="&#x1ca;" horiz-adv-x="984" 
d="M591 691v-691h-171l-237 559q18 -157 18 -277v-282h-120v691h167l241 -560q-18 114 -18 236v324h120zM907 691v-590q0 -58 -15 -102t-44.5 -73t-63 -47.5t-80.5 -33.5l-35 95q64 25 84.5 60.5t20.5 105.5v585h133z" />
    <glyph glyph-name="uni01CB" unicode="&#x1cb;" horiz-adv-x="953" 
d="M811 797q36 0 58.5 -22.5t22.5 -55.5t-22.5 -55t-58.5 -22q-35 0 -57.5 22t-22.5 55t22.5 55.5t57.5 22.5zM591 691v-691h-171l-237 559q18 -157 18 -277v-282h-120v691h167l241 -560q-18 114 -18 236v324h120zM876 529v-482q0 -113 -46.5 -168.5t-146.5 -95.5l-41 93
q58 27 82 59t24 104v490h128z" />
    <glyph glyph-name="uni01CC" unicode="&#x1cc;" horiz-adv-x="862" 
d="M720 642q-35 0 -57.5 22t-22.5 55t22.5 55.5t57.5 22.5q36 0 58.5 -22.5t22.5 -55.5t-22.5 -55t-58.5 -22zM359 544q71 0 110.5 -42.5t39.5 -118.5v-383h-128v363q0 47 -16.5 66t-48.5 19q-60 0 -111 -80v-368h-128v529h111l10 -69q65 84 161 84zM657 39v490h128v-482
q0 -113 -46.5 -168.5t-146.5 -95.5l-41 93q58 27 82 59t24 104z" />
    <glyph glyph-name="uni01CD" unicode="&#x1cd;" horiz-adv-x="583" 
d="M332 752h-80l-139 120l49 56l130 -83l130 83l49 -56zM447 0l-43 160h-229l-43 -160h-137l215 691h163l214 -691h-140zM201 260h176l-88 330z" />
    <glyph glyph-name="uni01CE" unicode="&#x1ce;" horiz-adv-x="546" 
d="M306 619h-80l-139 125l49 56l130 -88l130 88l49 -56zM468 140q0 -31 9.5 -45.5t30.5 -22.5l-27 -85q-88 8 -117 77q-52 -79 -158 -79q-79 0 -125 45t-46 118q0 86 62.5 131.5t178.5 45.5h66v30q0 51 -23.5 71.5t-75.5 20.5q-58 0 -140 -28l-30 87q99 38 192 38
q203 0 203 -182v-222zM240 78q65 0 102 65v107h-53q-124 0 -124 -92q0 -80 75 -80z" />
    <glyph glyph-name="uni01CF" unicode="&#x1cf;" horiz-adv-x="294" 
d="M277 928l49 -56l-139 -120h-80l-139 120l49 56l130 -83zM213 691v-691h-132v691h132z" />
    <glyph glyph-name="uni01D0" unicode="&#x1d0;" horiz-adv-x="282" 
d="M271 800l49 -56l-139 -125h-80l-139 125l49 56l130 -88zM205 529v-529h-128v529h128z" />
    <glyph glyph-name="uni01D1" unicode="&#x1d1;" horiz-adv-x="691" 
d="M476 928l49 -56l-139 -120h-80l-139 120l49 56l130 -83zM346 706q140 0 221 -94.5t81 -265.5q0 -170 -81 -265.5t-221 -95.5t-221.5 94.5t-81.5 265.5q0 169 81.5 265t221.5 96zM346 605q-164 0 -164 -260q0 -259 164 -259q163 0 163 260q0 135 -41.5 197t-121.5 62z" />
    <glyph glyph-name="uni01D2" unicode="&#x1d2;" horiz-adv-x="584" 
d="M422 800l49 -56l-139 -125h-80l-139 125l49 56l130 -88zM293 544q117 0 182.5 -74.5t65.5 -204.5q0 -127 -66.5 -203.5t-182.5 -76.5q-117 0 -183 74.5t-66 205.5q0 126 67 202.5t183 76.5zM293 447q-115 0 -115 -182q0 -183 114 -183t114 183q0 182 -113 182z" />
    <glyph glyph-name="uni01D3" unicode="&#x1d3;" horiz-adv-x="656" 
d="M458 928l49 -56l-139 -120h-80l-139 120l49 56l130 -83zM585 691v-465q0 -108 -67.5 -174.5t-190.5 -66.5q-124 0 -190 65.5t-66 175.5v465h132v-458q0 -145 124 -145q125 0 125 145v458h133z" />
    <glyph glyph-name="uni01D4" unicode="&#x1d4;" horiz-adv-x="577" 
d="M416 800l49 -56l-139 -125h-80l-139 125l49 56l130 -88zM500 529v-529h-111l-7 74q-58 -89 -162 -89q-71 0 -109.5 43.5t-38.5 120.5v380h128v-364q0 -45 15.5 -64t49.5 -19q61 0 107 75v372h128z" />
    <glyph glyph-name="uni01D5" unicode="&#x1d5;" horiz-adv-x="656" 
d="M476 924h-291v91h291v-91zM217 884q29 0 49 -20t20 -49t-20 -49t-49 -20q-30 0 -50.5 20t-20.5 49t20.5 49t50.5 20zM438 884q30 0 50 -20t20 -49t-20 -49t-50 -20q-29 0 -49.5 20t-20.5 49t20.5 49t49.5 20zM585 691v-465q0 -108 -67.5 -174.5t-190.5 -66.5
q-124 0 -190 65.5t-66 175.5v465h132v-458q0 -145 124 -145q125 0 125 145v458h133z" />
    <glyph glyph-name="uni01D6" unicode="&#x1d6;" horiz-adv-x="577" 
d="M431 797h-291v91h291v-91zM175 750q29 0 49 -20t20 -49t-20 -49t-49 -20q-30 0 -50.5 20t-20.5 49t20.5 49t50.5 20zM396 750q30 0 50 -20t20 -49t-20 -49t-50 -20q-29 0 -49.5 20t-20.5 49t20.5 49t49.5 20zM500 529v-529h-111l-7 74q-58 -89 -162 -89
q-71 0 -109.5 43.5t-38.5 120.5v380h128v-364q0 -45 15.5 -64t49.5 -19q61 0 107 75v372h128z" />
    <glyph glyph-name="uni01D7" unicode="&#x1d7;" horiz-adv-x="656" 
d="M403 1060l73 -70l-148 -134l-50 45zM214 885q29 0 49 -20t20 -49t-20 -49t-49 -20q-31 0 -51 20t-20 49t20 49t51 20zM442 885q29 0 49.5 -20t20.5 -49t-20.5 -49t-49.5 -20q-30 0 -50 20t-20 49t20 49t50 20zM585 691v-465q0 -108 -67.5 -174.5t-190.5 -66.5
q-124 0 -190 65.5t-66 175.5v465h132v-458q0 -145 124 -145q125 0 125 145v458h133z" />
    <glyph glyph-name="uni01D8" unicode="&#x1d8;" horiz-adv-x="577" 
d="M361 924l73 -70l-148 -134l-50 45zM172 750q28 0 48.5 -20t20.5 -49t-20 -49.5t-49 -20.5q-30 0 -50.5 20.5t-20.5 49.5t20.5 49t50.5 20zM400 750q29 0 49.5 -20t20.5 -49t-20.5 -49.5t-49.5 -20.5q-30 0 -50 20.5t-20 49.5t20 49t50 20zM500 529v-529h-111l-7 74
q-58 -89 -162 -89q-71 0 -109.5 43.5t-38.5 120.5v380h128v-364q0 -45 15.5 -64t49.5 -19q61 0 107 75v372h128z" />
    <glyph glyph-name="uni01D9" unicode="&#x1d9;" horiz-adv-x="656" 
d="M455 1064l49 -56l-139 -120h-80l-139 120l49 56l130 -83zM214 885q29 0 49 -20t20 -49t-20 -49t-49 -20q-31 0 -51 20t-20 49t20 49t51 20zM442 885q29 0 49.5 -20t20.5 -49t-20.5 -49t-49.5 -20q-30 0 -50 20t-20 49t20 49t50 20zM585 691v-465q0 -108 -67.5 -174.5
t-190.5 -66.5q-124 0 -190 65.5t-66 175.5v465h132v-458q0 -145 124 -145q125 0 125 145v458h133z" />
    <glyph glyph-name="uni01DA" unicode="&#x1da;" horiz-adv-x="577" 
d="M416 928l49 -56l-139 -120h-80l-139 120l49 56l130 -83zM172 750q30 0 50 -20t20 -49t-20 -49.5t-50 -20.5q-29 0 -49.5 20.5t-20.5 49.5t20.5 49t49.5 20zM400 750q30 0 50.5 -20t20.5 -49t-20.5 -49.5t-50.5 -20.5q-29 0 -49.5 20.5t-20.5 49.5t20.5 49t49.5 20z
M500 529v-529h-111l-7 74q-58 -89 -162 -89q-71 0 -109.5 43.5t-38.5 120.5v380h128v-364q0 -45 15.5 -64t49.5 -19q61 0 107 75v372h128z" />
    <glyph glyph-name="uni01DB" unicode="&#x1db;" horiz-adv-x="656" 
d="M254 1060l126 -159l-50 -45l-148 134zM214 885q29 0 49 -20t20 -49t-20 -49t-49 -20q-30 0 -50.5 20t-20.5 49t20.5 49t50.5 20zM442 885q30 0 50 -20t20 -49t-20 -49t-50 -20q-29 0 -49.5 20t-20.5 49t20.5 49t49.5 20zM585 691v-465q0 -108 -67.5 -174.5t-190.5 -66.5
q-124 0 -190 65.5t-66 175.5v465h132v-458q0 -145 124 -145q125 0 125 145v458h133z" />
    <glyph glyph-name="uni01DC" unicode="&#x1dc;" horiz-adv-x="577" 
d="M212 924l126 -159l-50 -45l-148 134zM172 750q29 0 49 -20t20 -49t-20 -49.5t-49 -20.5q-30 0 -50.5 20.5t-20.5 49.5t20.5 49t50.5 20zM400 750q30 0 50 -20t20 -49t-20 -49.5t-50 -20.5q-29 0 -49.5 20.5t-20.5 49.5t20.5 49t49.5 20zM500 529v-529h-111l-7 74
q-58 -89 -162 -89q-71 0 -109.5 43.5t-38.5 120.5v380h128v-364q0 -45 15.5 -64t49.5 -19q61 0 107 75v372h128z" />
    <glyph glyph-name="uni01DD" unicode="&#x1dd;" horiz-adv-x="555" 
d="M269 544q121 0 182 -74.5t61 -204.5q0 -126 -64 -203t-176 -77q-107 0 -170.5 71t-63.5 196q0 29 3 53h343q-10 144 -119 144q-73 0 -135 -47l-55 76q82 66 194 66zM272 79q52 0 80 33.5t32 109.5h-223v-8q0 -64 29.5 -99.5t81.5 -35.5z" />
    <glyph glyph-name="uni01DE" unicode="&#x1de;" horiz-adv-x="583" 
d="M440 1015v-91h-291v91h291zM181 746q-30 0 -50.5 20t-20.5 49t20.5 49t50.5 20q29 0 49 -20t20 -49t-20 -49t-49 -20zM332 815q0 29 20.5 49t49.5 20q30 0 50 -20t20 -49t-20 -49t-50 -20q-29 0 -49.5 20t-20.5 49zM447 0l-43 160h-229l-43 -160h-137l215 691h163
l214 -691h-140zM201 260h176l-88 330z" />
    <glyph glyph-name="uni01DF" unicode="&#x1df;" horiz-adv-x="546" 
d="M411 888v-91h-291v91h291zM155 612q-30 0 -50.5 20t-20.5 49t20.5 49t50.5 20q29 0 49 -20t20 -49t-20 -49t-49 -20zM306 681q0 29 20.5 49t49.5 20q30 0 50 -20t20 -49t-20 -49t-50 -20q-29 0 -49.5 20t-20.5 49zM468 140q0 -31 9.5 -45.5t30.5 -22.5l-27 -85
q-88 8 -117 77q-52 -79 -158 -79q-79 0 -125 45t-46 118q0 86 62.5 131.5t178.5 45.5h66v30q0 51 -23.5 71.5t-75.5 20.5q-58 0 -140 -28l-30 87q99 38 192 38q203 0 203 -182v-222zM240 78q65 0 102 65v107h-53q-124 0 -124 -92q0 -80 75 -80z" />
    <glyph glyph-name="uni01E0" unicode="&#x1e0;" horiz-adv-x="583" 
d="M440 1015v-91h-291v91h291zM212 815q0 33 22.5 55.5t57.5 22.5q36 0 58.5 -22.5t22.5 -55.5t-22.5 -55t-58.5 -22q-35 0 -57.5 22t-22.5 55zM447 0l-43 160h-229l-43 -160h-137l215 691h163l214 -691h-140zM201 260h176l-88 330z" />
    <glyph glyph-name="uni01E1" unicode="&#x1e1;" horiz-adv-x="546" 
d="M412 879v-91h-291v91h291zM185 676q0 33 22.5 55.5t57.5 22.5q36 0 58.5 -22.5t22.5 -55.5t-22.5 -55t-58.5 -22q-35 0 -57.5 22t-22.5 55zM468 140q0 -31 9.5 -45.5t30.5 -22.5l-27 -85q-88 8 -117 77q-52 -79 -158 -79q-79 0 -125 45t-46 118q0 86 62.5 131.5
t178.5 45.5h66v30q0 51 -23.5 71.5t-75.5 20.5q-58 0 -140 -28l-30 87q99 38 192 38q203 0 203 -182v-222zM240 78q65 0 102 65v107h-53q-124 0 -124 -92q0 -80 75 -80z" />
    <glyph glyph-name="uni01E2" unicode="&#x1e2;" horiz-adv-x="832" 
d="M624 878v-91h-291v91h291zM560 99h230v-99h-339l-32 160h-240l-57 -160h-140l273 691h496l-15 -98h-288l44 -194h250v-98h-228zM214 260h185l-67 331z" />
    <glyph glyph-name="uni01E3" unicode="&#x1e3;" horiz-adv-x="852" 
d="M573 752v-91h-291v91h291zM814 277q0 -31 -3 -52h-331q12 -143 129 -143q64 0 132 47l54 -73q-90 -71 -197 -71q-134 0 -201 93q-66 -93 -188 -93q-80 0 -127 45t-47 118q0 86 63.5 131.5t181.5 45.5h67v30q0 50 -23.5 70.5t-75.5 20.5q-57 0 -141 -28l-29 88
q99 38 191 38q112 0 161 -74q60 74 160 74q104 0 164 -71t60 -196zM688 308v6q-2 139 -104 139q-94 0 -105 -145h209zM246 78q65 0 115 77q-11 40 -13 89v4h-53q-124 0 -124 -92q0 -78 75 -78z" />
    <glyph glyph-name="uni01E4" unicode="&#x1e4;" horiz-adv-x="654" 
d="M651 260v-87h-65v-120q-108 -68 -240 -68q-147 0 -225 92t-78 269q0 169 90.5 264.5t224.5 95.5q128 0 222 -81l-70 -74q-71 55 -146 55q-80 0 -131 -64t-51 -196q0 -138 40.5 -199t123.5 -61q61 0 117 25v62h-114v87h114v50h-112l-13 90h248v-140h65z" />
    <glyph glyph-name="uni01E5" unicode="&#x1e5;" horiz-adv-x="537" 
d="M569 -20v-68h-54q-15 -62 -81 -96t-178 -34q-135 0 -188 41t-53 125h115q0 -44 26 -61.5t102 -17.5q118 0 142 43h-133v68h131q-23 35 -97 35h-80q-75 0 -113 26.5t-38 68.5q0 57 62 95q-93 49 -93 149q0 86 61 138t158 52q59 -1 107 7.5t74 19.5t66 32l32 -102
q-51 -18 -153 -18q96 -43 96 -136q0 -79 -57.5 -128.5t-155.5 -49.5q-36 0 -63 8q-22 -15 -22 -39q0 -35 64 -35h81q77 0 128 -33.5t62 -89.5h52zM260 457q-43 0 -67.5 -27.5t-24.5 -73.5q0 -48 25 -76t69 -28q46 0 70 27.5t24 77.5q0 100 -96 100z" />
    <glyph glyph-name="Gcaron" unicode="&#x1e6;" horiz-adv-x="638" 
d="M483 928l49 -56l-139 -120h-80l-139 120l49 56l130 -83zM360 706q124 0 220 -81l-71 -74q-70 55 -145 55q-80 0 -131 -64t-51 -196q0 -138 40.5 -199t123.5 -61q63 0 110 27v180h-104l-14 98h248v-338q-112 -68 -238 -68q-148 0 -226.5 92t-78.5 269q0 169 90.5 264.5
t226.5 95.5z" />
    <glyph glyph-name="gcaron" unicode="&#x1e7;" horiz-adv-x="537" 
d="M398 800l49 -56l-139 -125h-80l-139 125l49 56l130 -88zM505 603l32 -102q-51 -18 -153 -18q96 -43 96 -136q0 -79 -57.5 -128.5t-155.5 -49.5q-36 0 -63 8q-22 -15 -22 -39q0 -37 64 -37h81q87 0 140 -42t53 -108q0 -80 -68 -124.5t-196 -44.5q-135 0 -188 41t-53 125
h115q0 -42 26 -59t102 -17q73 0 103 18t30 52q0 30 -23 46.5t-67 16.5h-80q-75 0 -113 29t-38 73q0 60 62 98q-93 49 -93 149q0 86 61 138t158 52q59 -1 107 7.5t74 19.5t66 32zM260 457q-43 0 -67.5 -27.5t-24.5 -73.5q0 -48 25 -76t69 -28q46 0 70 27.5t24 77.5
q0 100 -96 100z" />
    <glyph glyph-name="uni01E8" unicode="&#x1e8;" horiz-adv-x="613" 
d="M459 928l49 -56l-139 -120h-80l-139 120l49 56l130 -83zM213 691v-691h-132v691h132zM601 691l-239 -313l258 -378h-157l-244 369l239 322h143z" />
    <glyph glyph-name="uni01E9" unicode="&#x1e9;" horiz-adv-x="534" 
d="M419 978l49 -56l-139 -120h-80l-139 120l49 56l130 -83zM205 755v-755h-128v741zM522 529l-176 -233l193 -296h-147l-182 289l177 240h135z" />
    <glyph glyph-name="uni01EA" unicode="&#x1ea;" horiz-adv-x="691" 
d="M648 346q0 -136 -53 -225.5t-148 -120.5q-121 -48 -121 -108q0 -46 55 -46q27 0 61 7l-10 -85q-37 -7 -67 -7q-61 0 -99 30t-38 79q0 70 70 118q-120 16 -187.5 108.5t-67.5 248.5q0 169 81.5 265t221.5 96t221 -94.5t81 -265.5zM346 86q163 0 163 260q0 135 -41.5 197
t-121.5 62q-164 0 -164 -260q0 -259 164 -259z" />
    <glyph glyph-name="uni01EB" unicode="&#x1eb;" horiz-adv-x="584" 
d="M371 -4q-111 -46 -111 -104q0 -46 55 -46q27 0 61 7l-10 -85q-37 -7 -67 -7q-61 0 -99 30t-38 79q0 72 74 120q-92 17 -142.5 89t-50.5 186q0 126 67 202.5t183 76.5q117 0 182.5 -74.5t65.5 -204.5q0 -103 -44.5 -174t-125.5 -95zM178 265q0 -183 114 -183t114 183
q0 182 -113 182q-115 0 -115 -182z" />
    <glyph glyph-name="uni01EC" unicode="&#x1ec;" horiz-adv-x="691" 
d="M491 878v-91h-291v91h291zM648 346q0 -136 -53 -225.5t-148 -120.5q-121 -48 -121 -108q0 -46 55 -46q27 0 61 7l-10 -85q-37 -7 -67 -7q-61 0 -99 30t-38 79q0 70 70 118q-120 16 -187.5 108.5t-67.5 248.5q0 169 81.5 265t221.5 96t221 -94.5t81 -265.5zM346 86
q163 0 163 260q0 135 -41.5 197t-121.5 62q-164 0 -164 -260q0 -259 164 -259z" />
    <glyph glyph-name="uni01ED" unicode="&#x1ed;" horiz-adv-x="584" 
d="M437 752v-91h-291v91h291zM371 -4q-111 -46 -111 -104q0 -46 55 -46q27 0 61 7l-10 -85q-37 -7 -67 -7q-61 0 -99 30t-38 79q0 72 74 120q-92 17 -142.5 89t-50.5 186q0 126 67 202.5t183 76.5q117 0 182.5 -74.5t65.5 -204.5q0 -103 -44.5 -174t-125.5 -95zM178 265
q0 -183 114 -183t114 183q0 182 -113 182q-115 0 -115 -182z" />
    <glyph glyph-name="uni01EE" unicode="&#x1ee;" horiz-adv-x="533" 
d="M295 752h-80l-139 120l49 56l130 -83l130 83l49 -56zM273 400q110 -1 167.5 -53t57.5 -145q0 -95 -70.5 -156t-191.5 -61q-147 0 -229 97l71 69q64 -64 151 -64q63 0 97 31.5t34 87.5q0 59 -34.5 85t-104.5 26h-94v81l191 193h-276v100h426v-98z" />
    <glyph glyph-name="uni01EF" unicode="&#x1ef;" horiz-adv-x="497" 
d="M277 619h-80l-139 125l49 56l130 -88l130 88l49 -56zM248 210q225 -8 225 -202q0 -100 -69 -163t-186 -63q-141 0 -225 97l71 67q67 -64 148 -64q60 0 93.5 33.5t33.5 98.5q0 61 -33 87.5t-106 26.5h-86v81l186 221h-271v99h416v-91z" />
    <glyph glyph-name="uni01F0" unicode="&#x1f0;" horiz-adv-x="281" 
d="M270 800l49 -56l-139 -125h-80l-139 125l49 56l130 -88zM204 529v-482q0 -113 -46.5 -168.5t-146.5 -95.5l-41 93q58 27 82 59t24 104v490h128z" />
    <glyph glyph-name="uni01F1" unicode="&#x1f1;" horiz-adv-x="1157" 
d="M251 691q59 0 107 -8t95.5 -30.5t79.5 -59.5t52 -99t20 -145q0 -100 -28.5 -171.5t-78.5 -108.5t-106 -53t-123 -16h-188v691h170zM1119 691v-102l-319 -481h322l-14 -108h-462v101l325 485h-292v105h440zM274 592h-61v-493h65q42 0 73.5 11t58.5 37t41.5 77t14.5 125
q0 75 -15 125t-43.5 75t-59.5 34t-74 9z" />
    <glyph glyph-name="uni01F2" unicode="&#x1f2;" horiz-adv-x="1087" 
d="M251 691q59 0 107 -8t95.5 -30.5t79.5 -59.5t52 -99t20 -145q0 -100 -28.5 -171.5t-78.5 -108.5t-106 -53t-123 -16h-188v691h170zM274 592h-61v-493h65q42 0 73.5 11t58.5 37t41.5 77t14.5 125q0 75 -15 125t-43.5 75t-59.5 34t-74 9zM1059 529v-92l-256 -337h261
l-13 -100h-395v92l257 337h-235v100h381z" />
    <glyph glyph-name="uni01F3" unicode="&#x1f3;" horiz-adv-x="1048" 
d="M394 487v268l128 -14v-741h-113l-9 67q-55 -82 -151 -82q-97 0 -149 75t-52 204q0 124 58 202t155 78q76 0 133 -57zM764 100h261l-13 -100h-395v92l257 337h-235v100h381v-92zM285 82q64 0 109 68v242q-46 56 -101 56q-51 0 -80.5 -45.5t-29.5 -137.5q0 -183 102 -183z
" />
    <glyph glyph-name="uni01F4" unicode="&#x1f4;" horiz-adv-x="638" 
d="M434 936l50 -100l-229 -83l-33 66zM360 706q124 0 220 -81l-71 -74q-70 55 -145 55q-80 0 -131 -64t-51 -196q0 -138 40.5 -199t123.5 -61q63 0 110 27v180h-104l-14 98h248v-338q-112 -68 -238 -68q-148 0 -226.5 92t-78.5 269q0 169 90.5 264.5t226.5 95.5z" />
    <glyph glyph-name="uni01F5" unicode="&#x1f5;" horiz-adv-x="537" 
d="M344 820l52 -100l-226 -90l-36 65zM505 603l32 -102q-51 -18 -153 -18q96 -43 96 -136q0 -79 -57.5 -128.5t-155.5 -49.5q-36 0 -63 8q-22 -15 -22 -39q0 -37 64 -37h81q87 0 140 -42t53 -108q0 -80 -68 -124.5t-196 -44.5q-135 0 -188 41t-53 125h115q0 -42 26 -59
t102 -17q73 0 103 18t30 52q0 30 -23 46.5t-67 16.5h-80q-75 0 -113 29t-38 73q0 60 62 98q-93 49 -93 149q0 86 61 138t158 52q59 -1 107 7.5t74 19.5t66 32zM260 457q-43 0 -67.5 -27.5t-24.5 -73.5q0 -48 25 -76t69 -28q46 0 70 27.5t24 77.5q0 100 -96 100z" />
    <glyph glyph-name="uni01F6" unicode="&#x1f6;" horiz-adv-x="959" 
d="M877 529q27 -151 27 -278q0 -132 -73 -199t-174 -67q-85 0 -141.5 48.5t-56.5 139.5v136h-246v-309h-132v691h132v-277h246v277h133v-514q0 -95 74 -95q44 0 77 43t33 137q0 123 -27 267h128z" />
    <glyph glyph-name="uni01F7" unicode="&#x1f7;" horiz-adv-x="591" 
d="M372 706q82 0 137.5 -52t55.5 -140q0 -57 -20.5 -102t-61 -78t-83.5 -55.5t-106 -46.5l-81 -30v-202h-132v691h132v-48q63 63 159 63zM274 325q153 64 153 184q0 48 -25 72.5t-69 24.5q-68 0 -120 -49v-257z" />
    <glyph glyph-name="uni01F8" unicode="&#x1f8;" horiz-adv-x="672" 
d="M257 936l212 -117l-33 -66l-229 83zM591 691v-691h-171l-237 559q18 -157 18 -277v-282h-120v691h167l241 -560q-18 114 -18 236v324h120z" />
    <glyph glyph-name="uni01F9" unicode="&#x1f9;" horiz-adv-x="581" 
d="M437 695l-37 -65l-225 90l52 100zM359 544q71 0 110.5 -42.5t39.5 -118.5v-383h-128v363q0 47 -16.5 66t-48.5 19q-60 0 -111 -80v-368h-128v529h111l10 -69q65 84 161 84z" />
    <glyph glyph-name="Aringacute" unicode="&#x1fa;" horiz-adv-x="583" 
d="M424 1052l-229 -83l-33 66l212 117zM164 844q0 51 35.5 85.5t92.5 34.5t92 -34.5t35 -85.5q0 -50 -35.5 -85t-91.5 -35q-57 0 -92.5 35t-35.5 85zM340 844q0 25 -13 39t-35 14q-23 0 -36 -14t-13 -39q0 -52 49 -52q22 0 35 13.5t13 38.5zM447 0l-43 160h-229l-43 -160
h-137l215 691h163l214 -691h-140zM201 260h176l-88 330z" />
    <glyph glyph-name="aringacute" unicode="&#x1fb;" horiz-adv-x="546" 
d="M397 908l-229 -83l-33 66l212 117zM138 700q0 51 35.5 85.5t92.5 34.5t92 -34.5t35 -85.5q0 -50 -35.5 -85t-91.5 -35q-57 0 -92.5 35t-35.5 85zM314 700q0 25 -13 39t-35 14q-23 0 -36 -14t-13 -39q0 -52 49 -52q22 0 35 13.5t13 38.5zM468 140q0 -31 9.5 -45.5
t30.5 -22.5l-27 -85q-88 8 -117 77q-52 -79 -158 -79q-79 0 -125 45t-46 118q0 86 62.5 131.5t178.5 45.5h66v30q0 51 -23.5 71.5t-75.5 20.5q-58 0 -140 -28l-30 87q99 38 192 38q203 0 203 -182v-222zM240 78q65 0 102 65v107h-53q-124 0 -124 -92q0 -80 75 -80z" />
    <glyph glyph-name="AEacute" unicode="&#x1fc;" horiz-adv-x="832" 
d="M610 836l-229 -83l-33 66l212 117zM560 99h230v-99h-339l-32 160h-240l-57 -160h-140l273 691h496l-15 -98h-288l44 -194h250v-98h-228zM214 260h185l-67 331z" />
    <glyph glyph-name="aeacute" unicode="&#x1fd;" horiz-adv-x="852" 
d="M556 720l-226 -90l-36 65l210 125zM814 277q0 -31 -3 -52h-331q12 -143 129 -143q64 0 132 47l54 -73q-90 -71 -197 -71q-134 0 -201 93q-66 -93 -188 -93q-80 0 -127 45t-47 118q0 86 63.5 131.5t181.5 45.5h67v30q0 50 -23.5 70.5t-75.5 20.5q-57 0 -141 -28l-29 88
q99 38 191 38q112 0 161 -74q60 74 160 74q104 0 164 -71t60 -196zM688 308v6q-2 139 -104 139q-94 0 -105 -145h209zM246 78q65 0 115 77q-11 40 -13 89v4h-53q-124 0 -124 -92q0 -78 75 -78z" />
    <glyph glyph-name="Oslashacute" unicode="&#x1fe;" horiz-adv-x="691" 
d="M473 862l-229 -83l-33 66l212 117zM502 667q146 -86 146 -321q0 -170 -81 -265.5t-221 -95.5q-26 0 -58 5l-36 -121l-103 27l41 128q-147 87 -147 321q0 169 81.5 265t221.5 96q32 0 56 -4l37 122l104 -28zM346 605q-164 0 -164 -260q0 -166 58 -222l144 479q-18 3 -38 3
zM346 86q163 0 163 260q0 170 -59 224l-143 -481q18 -3 39 -3z" />
    <glyph glyph-name="oslashacute" unicode="&#x1ff;" horiz-adv-x="584" 
d="M420 720l-226 -90l-36 65l210 125zM428 509q113 -68 113 -244q0 -127 -66.5 -203.5t-182.5 -76.5q-22 0 -41 3l-38 -121l-98 29l41 124q-113 71 -113 245q0 126 67 202.5t183 76.5q21 0 41 -3l39 121l97 -29zM293 447q-122 0 -122 -182q0 -112 35 -153l111 334
q-7 1 -24 1zM292 82q121 0 121 183q0 112 -35 152l-110 -334q8 -1 24 -1z" />
    <glyph glyph-name="uni0200" unicode="&#x200;" horiz-adv-x="583" 
d="M257 787l-71 -32l-114 170l93 48zM413 790l-72 -30l-105 167l94 46zM447 0l-43 160h-229l-43 -160h-137l215 691h163l214 -691h-140zM201 260h176l-88 330z" />
    <glyph glyph-name="uni0201" unicode="&#x201;" horiz-adv-x="546" 
d="M240 661l-71 -32l-114 170l93 48zM396 664l-72 -30l-105 167l94 46zM468 140q0 -31 9.5 -45.5t30.5 -22.5l-27 -85q-88 8 -117 77q-52 -79 -158 -79q-79 0 -125 45t-46 118q0 86 62.5 131.5t178.5 45.5h66v30q0 51 -23.5 71.5t-75.5 20.5q-58 0 -140 -28l-30 87
q99 38 192 38q203 0 203 -182v-222zM240 78q65 0 102 65v107h-53q-124 0 -124 -92q0 -80 75 -80z" />
    <glyph glyph-name="uni0202" unicode="&#x202;" horiz-adv-x="583" 
d="M291 846q-67 0 -87 -77l-75 14q6 69 49.5 112t112.5 43t113.5 -43t50.5 -112l-76 -14q-19 77 -88 77zM447 0l-43 160h-229l-43 -160h-137l215 691h163l214 -691h-140zM201 260h176l-88 330z" />
    <glyph glyph-name="uni0203" unicode="&#x203;" horiz-adv-x="546" 
d="M265 684q-67 0 -87 -77l-75 14q6 69 49.5 112t112.5 43t113.5 -43t50.5 -112l-76 -14q-19 77 -88 77zM468 140q0 -31 9.5 -45.5t30.5 -22.5l-27 -85q-88 8 -117 77q-52 -79 -158 -79q-79 0 -125 45t-46 118q0 86 62.5 131.5t178.5 45.5h66v30q0 51 -23.5 71.5t-75.5 20.5
q-58 0 -140 -28l-30 87q99 38 192 38q203 0 203 -182v-222zM240 78q65 0 102 65v107h-53q-124 0 -124 -92q0 -80 75 -80z" />
    <glyph glyph-name="uni0204" unicode="&#x204;" horiz-adv-x="530" 
d="M157 973l92 -186l-71 -32l-114 170zM322 973l83 -183l-72 -30l-105 167zM482 691l-14 -98h-255v-193h222v-98h-222v-203h273v-99h-405v691h401z" />
    <glyph glyph-name="uni0205" unicode="&#x205;" horiz-adv-x="549" 
d="M255 661l-71 -32l-114 170l93 48zM411 664l-72 -30l-105 167l94 46zM511 277q0 -10 -3 -52h-332q12 -143 130 -143q64 0 132 47l53 -73q-88 -71 -196 -71q-121 0 -186.5 74t-65.5 202q0 124 62.5 203.5t172.5 79.5q111 0 172 -70.5t61 -196.5zM384 308v6q0 139 -103 139
q-95 0 -105 -145h208z" />
    <glyph glyph-name="uni0206" unicode="&#x206;" horiz-adv-x="530" 
d="M283 938q69 0 113.5 -43t50.5 -112l-76 -14q-19 77 -88 77q-67 0 -87 -77l-75 14q6 69 49.5 112t112.5 43zM482 691l-14 -98h-255v-193h222v-98h-222v-203h273v-99h-405v691h401z" />
    <glyph glyph-name="uni0207" unicode="&#x207;" horiz-adv-x="549" 
d="M280 684q-67 0 -87 -77l-75 14q6 69 49.5 112t112.5 43t113.5 -43t50.5 -112l-76 -14q-19 77 -88 77zM511 277q0 -10 -3 -52h-332q12 -143 130 -143q64 0 132 47l53 -73q-88 -71 -196 -71q-121 0 -186.5 74t-65.5 202q0 124 62.5 203.5t172.5 79.5q111 0 172 -70.5
t61 -196.5zM384 308v6q0 139 -103 139q-95 0 -105 -145h208z" />
    <glyph glyph-name="uni0208" unicode="&#x208;" horiz-adv-x="294" 
d="M20 973l92 -186l-71 -32l-114 170zM185 973l83 -183l-72 -30l-105 167zM213 691v-691h-132v691h132z" />
    <glyph glyph-name="uni0209" unicode="&#x209;" horiz-adv-x="282" 
d="M23 847l92 -186l-71 -32l-114 170zM188 847l83 -183l-72 -30l-105 167zM205 529v-529h-128v529h128z" />
    <glyph glyph-name="uni020A" unicode="&#x20a;" horiz-adv-x="294" 
d="M146 938q69 0 113.5 -43t50.5 -112l-76 -14q-19 77 -88 77q-67 0 -87 -77l-75 14q6 69 49.5 112t112.5 43zM213 691v-691h-132v691h132z" />
    <glyph glyph-name="uni020B" unicode="&#x20b;" horiz-adv-x="282" 
d="M140 776q69 0 113.5 -43t50.5 -112l-76 -14q-19 77 -88 77q-67 0 -87 -77l-75 14q6 69 49.5 112t112.5 43zM205 529v-529h-128v529h128z" />
    <glyph glyph-name="uni020C" unicode="&#x20c;" horiz-adv-x="691" 
d="M219 973l92 -186l-71 -32l-114 170zM384 973l83 -183l-72 -30l-105 167zM346 706q140 0 221 -94.5t81 -265.5q0 -170 -81 -265.5t-221 -95.5t-221.5 94.5t-81.5 265.5q0 169 81.5 265t221.5 96zM346 605q-164 0 -164 -260q0 -259 164 -259q163 0 163 260q0 135 -41.5 197
t-121.5 62z" />
    <glyph glyph-name="uni020D" unicode="&#x20d;" horiz-adv-x="584" 
d="M174 847l92 -186l-71 -32l-114 170zM339 847l83 -183l-72 -30l-105 167zM293 544q117 0 182.5 -74.5t65.5 -204.5q0 -127 -66.5 -203.5t-182.5 -76.5q-117 0 -183 74.5t-66 205.5q0 126 67 202.5t183 76.5zM293 447q-115 0 -115 -182q0 -183 114 -183t114 183
q0 182 -113 182z" />
    <glyph glyph-name="uni020E" unicode="&#x20e;" horiz-adv-x="691" 
d="M345 938q69 0 113.5 -43t50.5 -112l-76 -14q-19 77 -88 77q-67 0 -87 -77l-75 14q6 69 49.5 112t112.5 43zM346 706q140 0 221 -94.5t81 -265.5q0 -170 -81 -265.5t-221 -95.5t-221.5 94.5t-81.5 265.5q0 169 81.5 265t221.5 96zM346 605q-164 0 -164 -260
q0 -259 164 -259q163 0 163 260q0 135 -41.5 197t-121.5 62z" />
    <glyph glyph-name="uni020F" unicode="&#x20f;" horiz-adv-x="584" 
d="M291 776q69 0 113.5 -43t50.5 -112l-76 -14q-19 77 -88 77q-67 0 -87 -77l-75 14q6 69 49.5 112t112.5 43zM293 544q117 0 182.5 -74.5t65.5 -204.5q0 -127 -66.5 -203.5t-182.5 -76.5q-117 0 -183 74.5t-66 205.5q0 126 67 202.5t183 76.5zM293 447q-115 0 -115 -182
q0 -183 114 -183t114 183q0 182 -113 182z" />
    <glyph glyph-name="uni0210" unicode="&#x210;" horiz-adv-x="611" 
d="M265 787l-71 -32l-114 170l93 48zM421 790l-72 -30l-105 167l94 46zM450 0l-153 277h-84v-277h-132v691h206q274 0 274 -203q0 -69 -34 -114t-106 -73l181 -301h-152zM213 595v-223h82q128 0 128 116q0 56 -33.5 81.5t-105.5 25.5h-71z" />
    <glyph glyph-name="uni0211" unicode="&#x211;" horiz-adv-x="394" 
d="M210 661l-71 -32l-114 170l93 48zM366 664l-72 -30l-105 167l94 46zM338 543q29 0 53 -7l-22 -124q-24 6 -47 6q-47 0 -74 -33.5t-43 -102.5v-282h-128v529h111l12 -104q19 57 55 87.5t83 30.5z" />
    <glyph glyph-name="uni0212" unicode="&#x212;" horiz-adv-x="611" 
d="M299 846q-67 0 -87 -77l-75 14q6 69 49.5 112t112.5 43t113.5 -43t50.5 -112l-76 -14q-19 77 -88 77zM450 0l-153 277h-84v-277h-132v691h206q274 0 274 -203q0 -69 -34 -114t-106 -73l181 -301h-152zM213 595v-223h82q128 0 128 116q0 56 -33.5 81.5t-105.5 25.5h-71z
" />
    <glyph glyph-name="uni0213" unicode="&#x213;" horiz-adv-x="394" 
d="M235 684q-67 0 -87 -77l-75 14q6 69 49.5 112t112.5 43t113.5 -43t50.5 -112l-76 -14q-19 77 -88 77zM200 425q19 57 55 87.5t83 30.5q29 0 53 -7l-22 -124q-24 6 -47 6q-47 0 -74 -33.5t-43 -102.5v-282h-128v529h111z" />
    <glyph glyph-name="uni0214" unicode="&#x214;" horiz-adv-x="656" 
d="M201 973l92 -186l-71 -32l-114 170zM366 973l83 -183l-72 -30l-105 167zM585 691v-465q0 -108 -67.5 -174.5t-190.5 -66.5q-124 0 -190 65.5t-66 175.5v465h132v-458q0 -145 124 -145q125 0 125 145v458h133z" />
    <glyph glyph-name="uni0215" unicode="&#x215;" horiz-adv-x="577" 
d="M168 847l92 -186l-71 -32l-114 170zM333 847l83 -183l-72 -30l-105 167zM500 529v-529h-111l-7 74q-58 -89 -162 -89q-71 0 -109.5 43.5t-38.5 120.5v380h128v-364q0 -45 15.5 -64t49.5 -19q61 0 107 75v372h128z" />
    <glyph glyph-name="uni0216" unicode="&#x216;" horiz-adv-x="656" 
d="M327 938q69 0 113.5 -43t50.5 -112l-76 -14q-19 77 -88 77q-67 0 -87 -77l-75 14q6 69 49.5 112t112.5 43zM585 691v-465q0 -108 -67.5 -174.5t-190.5 -66.5q-124 0 -190 65.5t-66 175.5v465h132v-458q0 -145 124 -145q125 0 125 145v458h133z" />
    <glyph glyph-name="uni0217" unicode="&#x217;" horiz-adv-x="577" 
d="M285 776q69 0 113.5 -43t50.5 -112l-76 -14q-19 77 -88 77q-67 0 -87 -77l-75 14q6 69 49.5 112t112.5 43zM500 529v-529h-111l-7 74q-58 -89 -162 -89q-71 0 -109.5 43.5t-38.5 120.5v380h128v-364q0 -45 15.5 -64t49.5 -19q61 0 107 75v372h128z" />
    <glyph glyph-name="Scommaaccent" unicode="&#x218;" 
d="M280 706q135 0 228 -85l-65 -75q-72 59 -155 59q-48 0 -77.5 -21.5t-29.5 -60.5q0 -38 28 -59.5t114 -48.5q102 -32 153.5 -79.5t51.5 -138.5q0 -95 -70 -153.5t-192 -58.5q-152 0 -249 95l68 76q82 -69 178 -69q57 0 92 27t35 76q0 44 -28 68t-109 49q-110 34 -159 82
t-49 126q0 85 66 138t169 53zM278 -72q29 0 49 -19.5t20 -48.5q0 -26 -27 -81l-44 -91h-67l28 116q-29 22 -29 56q0 29 20 48.5t50 19.5z" />
    <glyph glyph-name="scommaaccent" unicode="&#x219;" horiz-adv-x="476" 
d="M244 544q107 0 188 -63l-50 -75q-68 43 -133 43q-38 0 -59 -14.5t-21 -38.5q0 -27 22 -42t89 -34q86 -23 127.5 -61t41.5 -106q0 -79 -64 -123.5t-159 -44.5q-127 0 -211 75l64 72q69 -52 144 -52q43 0 68.5 17t25.5 47q0 33 -22.5 49t-97.5 37q-157 43 -157 160
q0 67 56.5 110.5t147.5 43.5zM241 -72q29 0 49 -19.5t20 -48.5q0 -26 -27 -81l-44 -91h-67l28 116q-29 22 -29 56q0 29 20 48.5t50 19.5z" />
    <glyph glyph-name="uni021A" unicode="&#x21a;" horiz-adv-x="530" 
d="M525 691l-14 -105h-180v-586h-133v586h-186v105h513zM267 -72q29 0 49 -19.5t20 -48.5q0 -26 -27 -81l-44 -91h-67l28 116q-29 22 -29 56q0 29 20 48.5t50 19.5z" />
    <glyph glyph-name="uni021B" unicode="&#x21b;" horiz-adv-x="375" 
d="M380 25q-56 -40 -133 -40q-159 2 -159 173v279h-83v92h83v117l128 15v-132h123l-13 -92h-110v-276q0 -39 13.5 -56t42.5 -17t63 19zM236 -72q29 0 49 -19.5t20 -48.5q0 -26 -27 -81l-44 -91h-67l28 116q-29 22 -29 56q0 29 20 48.5t50 19.5z" />
    <glyph glyph-name="uni021C" unicode="&#x21c;" horiz-adv-x="513" 
d="M232 706q106 0 165 -51.5t59 -133.5q0 -131 -145 -163q77 -8 122 -48t45 -115q0 -106 -100 -185.5t-310 -117.5l-11 102q160 38 220.5 87t60.5 119q0 105 -137 105h-69l16 99h55q55 0 85.5 27t30.5 77q0 45 -25 71.5t-77 26.5q-75 0 -150 -60l-64 71q97 89 229 89z" />
    <glyph glyph-name="uni021D" unicode="&#x21d;" horiz-adv-x="480" 
d="M209 544q85 0 143 -39.5t58 -110.5q0 -93 -112 -121q67 -3 103 -33.5t36 -83.5q0 -87 -98 -155.5t-277 -105.5l-14 87q134 41 194 81t61 94q0 63 -83 63h-97l8 88h55q94 0 94 75q0 69 -87 69q-64 0 -125 -38l-60 69q85 61 201 61z" />
    <glyph glyph-name="uni021E" unicode="&#x21e;" horiz-adv-x="672" 
d="M466 928l49 -56l-139 -120h-80l-139 120l49 56l130 -83zM459 0v309h-246v-309h-132v691h132v-277h246v277h133v-691h-133z" />
    <glyph glyph-name="uni021F" unicode="&#x21f;" horiz-adv-x="581" 
d="M330 802h-80l-139 120l49 56l130 -83l130 83l49 -56zM359 544q70 0 110 -43t40 -118v-383h-128v363q0 47 -16.5 66t-48.5 19q-60 0 -111 -79v-369h-128v740l128 13v-287q64 78 154 78z" />
    <glyph glyph-name="uni0220" unicode="&#x220;" horiz-adv-x="662" 
d="M406 706q89 0 135.5 -52.5t46.5 -136.5v-723h-133v700q0 56 -21 83t-68 27q-46 0 -79.5 -19t-73.5 -60v-525h-132v691h115l11 -74q86 89 199 89z" />
    <glyph glyph-name="uni0221" unicode="&#x221;" horiz-adv-x="766" 
d="M663 236q51 0 83.5 -30t32.5 -80q0 -67 -50.5 -104t-131.5 -37q-24 0 -56 5l-32 -70l-69 28l33 68q-41 25 -61 67q-60 -98 -163 -98q-97 0 -149 75t-52 204q0 124 58 202t157 78q74 0 131 -57v268l128 -14v-574q0 -27 4 -40q25 57 56.5 83t80.5 26zM285 82q62 0 110 69
q-1 8 -1 23v218q-46 56 -100 56q-52 0 -81.5 -45.5t-29.5 -137.5q0 -183 102 -183zM609 83q73 0 73 45q0 31 -31 31q-20 0 -35 -16t-34 -59q8 -1 27 -1z" />
    <glyph glyph-name="uni0222" unicode="&#x222;" horiz-adv-x="651" 
d="M476 396q132 -50 132 -182q0 -94 -77 -161.5t-205 -67.5q-129 0 -206 66t-77 162q0 62 34 109t98 72q-89 48 -89 155v142h132v-144q0 -111 108 -111t108 111v144h134v-142q0 -102 -92 -153zM326 86q143 0 143 129q0 58 -36 90.5t-107 32.5t-107.5 -32.5t-36.5 -91.5
q0 -62 37 -95t107 -33z" />
    <glyph glyph-name="uni0223" unicode="&#x223;" horiz-adv-x="578" 
d="M413 413q122 -46 122 -193q0 -99 -66 -167t-180 -68t-180 66.5t-66 168.5q0 141 121 191q-83 44 -83 140v190h127v-203q0 -89 82 -89q81 0 81 89v203h127v-190q0 -91 -85 -138zM289 82q58 0 85 34t27 105q0 139 -112 139t-112 -139t112 -139z" />
    <glyph glyph-name="uni0224" unicode="&#x224;" horiz-adv-x="531" 
d="M496 691v-102l-319 -481h315v-151q0 -86 -47.5 -130.5t-130.5 -44.5q-77 0 -129 41l45 81q36 -22 75 -22q60 0 60 67v51h-342v101l325 485h-292v105h440z" />
    <glyph glyph-name="uni0225" unicode="&#x225;" horiz-adv-x="445" 
d="M421 529v-92l-256 -337h255v-143q0 -85 -47.5 -130t-128.5 -45q-77 0 -129 41l45 77q37 -21 74 -21q63 0 63 67v54h-279v92l257 337h-235v100h381z" />
    <glyph glyph-name="uni0226" unicode="&#x226;" horiz-adv-x="583" 
d="M291 768q-35 0 -57.5 22t-22.5 55t22.5 55.5t57.5 22.5q36 0 58.5 -22.5t22.5 -55.5t-22.5 -55t-58.5 -22zM447 0l-43 160h-229l-43 -160h-137l215 691h163l214 -691h-140zM201 260h176l-88 330z" />
    <glyph glyph-name="uni0227" unicode="&#x227;" horiz-adv-x="546" 
d="M265 642q-35 0 -57.5 22t-22.5 55t22.5 55.5t57.5 22.5q36 0 58.5 -22.5t22.5 -55.5t-22.5 -55t-58.5 -22zM468 140q0 -31 9.5 -45.5t30.5 -22.5l-27 -85q-88 8 -117 77q-52 -79 -158 -79q-79 0 -125 45t-46 118q0 86 62.5 131.5t178.5 45.5h66v30q0 51 -23.5 71.5
t-75.5 20.5q-58 0 -140 -28l-30 87q99 38 192 38q203 0 203 -182v-222zM240 78q65 0 102 65v107h-53q-124 0 -124 -92q0 -80 75 -80z" />
    <glyph glyph-name="uni0228" unicode="&#x228;" horiz-adv-x="530" 
d="M486 0h-166v-52q99 -10 99 -92q0 -50 -38 -79.5t-99 -29.5q-63 0 -103 28l31 63q30 -16 63 -16q49 0 49 34q0 38 -91 38l13 106h-163v691h401l-14 -98h-255v-193h222v-98h-222v-203h273v-99z" />
    <glyph glyph-name="uni0229" unicode="&#x229;" horiz-adv-x="549" 
d="M511 277q0 -10 -3 -52h-332q12 -143 130 -143q64 0 132 47l53 -73q-76 -61 -163 -69v-39q99 -10 99 -92q0 -50 -38 -79.5t-99 -29.5q-63 0 -103 28l31 63q30 -16 63 -16q49 0 49 34q0 38 -91 38l12 94q-101 13 -154.5 85.5t-53.5 187.5q0 124 62.5 203.5t172.5 79.5
q111 0 172 -70.5t61 -196.5zM384 308v6q0 139 -103 139q-95 0 -105 -145h208z" />
    <glyph glyph-name="uni022A" unicode="&#x22a;" horiz-adv-x="691" 
d="M494 924h-291v91h291v-91zM235 884q29 0 49 -20t20 -49t-20 -49t-49 -20q-30 0 -50.5 20t-20.5 49t20.5 49t50.5 20zM456 884q30 0 50 -20t20 -49t-20 -49t-50 -20q-29 0 -49.5 20t-20.5 49t20.5 49t49.5 20zM346 706q140 0 221 -94.5t81 -265.5q0 -170 -81 -265.5
t-221 -95.5t-221.5 94.5t-81.5 265.5q0 169 81.5 265t221.5 96zM346 605q-164 0 -164 -260q0 -259 164 -259q163 0 163 260q0 135 -41.5 197t-121.5 62z" />
    <glyph glyph-name="uni022B" unicode="&#x22b;" horiz-adv-x="584" 
d="M437 797h-291v91h291v-91zM181 750q29 0 49 -20t20 -49t-20 -49t-49 -20q-30 0 -50.5 20t-20.5 49t20.5 49t50.5 20zM402 750q30 0 50 -20t20 -49t-20 -49t-50 -20q-29 0 -49.5 20t-20.5 49t20.5 49t49.5 20zM293 544q117 0 182.5 -74.5t65.5 -204.5q0 -127 -66.5 -203.5
t-182.5 -76.5q-117 0 -183 74.5t-66 205.5q0 126 67 202.5t183 76.5zM293 447q-115 0 -115 -182q0 -183 114 -183t114 183q0 182 -113 182z" />
    <glyph glyph-name="uni022C" unicode="&#x22c;" horiz-adv-x="691" 
d="M491 929h-291v91h291v-91zM404 756q-31 0 -66 23.5t-49 23.5q-17 0 -28.5 -10.5t-24.5 -34.5l-69 34q44 104 120 104q33 0 67 -23t49 -23q26 0 53 43l68 -34q-43 -103 -120 -103zM346 706q140 0 221 -94.5t81 -265.5q0 -170 -81 -265.5t-221 -95.5t-221.5 94.5
t-81.5 265.5q0 169 81.5 265t221.5 96zM346 605q-164 0 -164 -260q0 -259 164 -259q163 0 163 260q0 135 -41.5 197t-121.5 62z" />
    <glyph glyph-name="uni022D" unicode="&#x22d;" horiz-adv-x="584" 
d="M437 822h-291v91h291v-91zM350 594q-31 0 -66 23.5t-49 23.5q-17 0 -28.5 -10.5t-24.5 -34.5l-69 34q44 104 120 104q33 0 67 -23t49 -23q26 0 53 43l68 -34q-43 -103 -120 -103zM293 544q117 0 182.5 -74.5t65.5 -204.5q0 -127 -66.5 -203.5t-182.5 -76.5
q-117 0 -183 74.5t-66 205.5q0 126 67 202.5t183 76.5zM293 447q-115 0 -115 -182q0 -183 114 -183t114 183q0 182 -113 182z" />
    <glyph glyph-name="uni022E" unicode="&#x22e;" horiz-adv-x="691" 
d="M345 923q36 0 58.5 -22.5t22.5 -55.5t-22.5 -55t-58.5 -22q-35 0 -57.5 22t-22.5 55t22.5 55.5t57.5 22.5zM346 706q140 0 221 -94.5t81 -265.5q0 -170 -81 -265.5t-221 -95.5t-221.5 94.5t-81.5 265.5q0 169 81.5 265t221.5 96zM346 605q-164 0 -164 -260
q0 -259 164 -259q163 0 163 260q0 135 -41.5 197t-121.5 62z" />
    <glyph glyph-name="uni022F" unicode="&#x22f;" horiz-adv-x="584" 
d="M291 797q36 0 58.5 -22.5t22.5 -55.5t-22.5 -55t-58.5 -22q-35 0 -57.5 22t-22.5 55t22.5 55.5t57.5 22.5zM293 544q117 0 182.5 -74.5t65.5 -204.5q0 -127 -66.5 -203.5t-182.5 -76.5q-117 0 -183 74.5t-66 205.5q0 126 67 202.5t183 76.5zM293 447q-115 0 -115 -182
q0 -183 114 -183t114 183q0 182 -113 182z" />
    <glyph glyph-name="uni0230" unicode="&#x230;" horiz-adv-x="691" 
d="M494 924h-291v91h291v-91zM346 893q36 0 58.5 -22.5t22.5 -55.5t-22.5 -55t-58.5 -22q-35 0 -57.5 22t-22.5 55t22.5 55.5t57.5 22.5zM346 706q140 0 221 -94.5t81 -265.5q0 -170 -81 -265.5t-221 -95.5t-221.5 94.5t-81.5 265.5q0 169 81.5 265t221.5 96zM346 605
q-164 0 -164 -260q0 -259 164 -259q163 0 163 260q0 135 -41.5 197t-121.5 62z" />
    <glyph glyph-name="uni0231" unicode="&#x231;" horiz-adv-x="584" 
d="M438 788h-291v91h291v-91zM291 754q36 0 58.5 -22.5t22.5 -55.5t-22.5 -55t-58.5 -22q-35 0 -57.5 22t-22.5 55t22.5 55.5t57.5 22.5zM293 544q117 0 182.5 -74.5t65.5 -204.5q0 -127 -66.5 -203.5t-182.5 -76.5q-117 0 -183 74.5t-66 205.5q0 126 67 202.5t183 76.5z
M293 447q-115 0 -115 -182q0 -183 114 -183t114 183q0 182 -113 182z" />
    <glyph glyph-name="uni0232" unicode="&#x232;" horiz-adv-x="574" 
d="M432 787h-291v91h291v-91zM576 691l-222 -429v-262h-134v261l-222 430h146l146 -321l146 321h140z" />
    <glyph glyph-name="uni0233" unicode="&#x233;" horiz-adv-x="506" 
d="M398 661h-291v91h291v-91zM505 529l-172 -531q-32 -98 -97 -152.5t-178 -63.5l-13 93q76 12 110.5 39t58.5 86h-44l-168 529h136l115 -444l120 444h132z" />
    <glyph glyph-name="uni0234" unicode="&#x234;" horiz-adv-x="443" 
d="M341 236q51 0 83.5 -30t32.5 -80q0 -67 -51 -104t-132 -37q-25 0 -55 5l-32 -70l-69 28l32 68q-78 49 -78 158v567l128 14v-588q0 -27 4 -40q25 57 56.5 83t80.5 26zM287 83q73 0 73 45q0 31 -31 31q-20 0 -35 -16t-34 -59q8 -1 27 -1z" />
    <glyph glyph-name="uni0235" unicode="&#x235;" horiz-adv-x="753" 
d="M650 236q51 0 83.5 -30t32.5 -80q0 -67 -50.5 -104t-131.5 -37q-24 0 -56 5l-31 -70l-70 28l33 68q-79 48 -79 158v189q0 47 -16.5 66t-48.5 19q-60 0 -111 -80v-368h-128v529h111l10 -69q65 84 161 84q71 0 110.5 -42.5t39.5 -118.5v-216q0 -27 4 -40q25 57 56.5 83
t80.5 26zM596 83q73 0 73 45q0 31 -31 31q-20 0 -34.5 -16t-33.5 -59q7 -1 26 -1z" />
    <glyph glyph-name="uni0236" unicode="&#x236;" horiz-adv-x="459" 
d="M357 236q51 0 83 -30t32 -80q0 -67 -50.5 -104t-131.5 -37q-32 0 -56 5l-31 -70l-69 28l31 67q-77 44 -77 159v263h-83v92h83v117l128 15v-132h123l-13 -92h-110v-270q0 -26 4 -41q24 57 56 83.5t81 26.5zM303 83q72 0 72 45q0 31 -30 31q-20 0 -35 -16t-34 -59
q8 -1 27 -1z" />
    <glyph glyph-name="uni0237" unicode="&#x237;" horiz-adv-x="281" 
d="M204 529v-482q0 -113 -46.5 -168.5t-146.5 -95.5l-41 93q58 27 82 59t24 104v490h128z" />
    <glyph glyph-name="uni0238" unicode="&#x238;" horiz-adv-x="873" 
d="M641 544q85 0 134 -73.5t49 -205.5q0 -124 -54.5 -202t-144.5 -78q-81 0 -129 80l-9 -65h-98l-9 67q-55 -82 -141 -82q-90 0 -140.5 75.5t-50.5 203.5q0 123 55.5 201.5t144.5 78.5q75 0 126 -70v267l128 14v-286q53 75 139 75zM275 82q54 0 99 68v235q-41 63 -95 63
q-43 0 -69.5 -46t-26.5 -137q0 -183 92 -183zM595 81q41 0 68 45t27 139q0 183 -90 183q-55 0 -98 -66v-228q21 -37 41.5 -55t51.5 -18z" />
    <glyph glyph-name="uni0239" unicode="&#x239;" horiz-adv-x="873" 
d="M638 544q93 0 139.5 -73.5t46.5 -204.5q0 -124 -53.5 -202.5t-143.5 -78.5q-76 0 -125 71v-260l-128 -14v275q-52 -72 -136 -72q-90 0 -140 75.5t-50 203.5q0 123 56.5 201.5t148.5 78.5q79 0 130 -77l7 62h96l7 -67q58 82 145 82zM274 82q55 0 100 68v228q-41 70 -94 70
q-44 0 -70.5 -46t-26.5 -137q0 -183 91 -183zM591 83q46 0 72.5 45t26.5 137q0 183 -88 183q-55 0 -100 -69v-231q35 -65 89 -65z" />
    <glyph glyph-name="uni023A" unicode="&#x23a;" horiz-adv-x="583" 
d="M456 0l-44 160h-126l-62 -232l-52 12l58 220h-63l-44 -160h-128l215 691h162l16 62l52 -12l-38 -143l185 -598h-131zM193 254h62l64 240l-30 110zM311 254h75l-39 139z" />
    <glyph glyph-name="uni023B" unicode="&#x23b;" horiz-adv-x="568" 
d="M493 147l62 -78q-82 -84 -208 -84q-38 0 -76 8l-17 -65l-52 12l19 70q-84 37 -131 123t-47 214q0 169 85 264t217 95q29 0 59 -5l14 52l51 -12l-14 -53q46 -17 92 -55l-67 -78q-23 19 -52 32l-129 -488q27 -8 53 -8q66 0 141 56zM182 347q0 -158 70 -220l126 475
q-18 2 -26 2q-77 0 -123.5 -62t-46.5 -195z" />
    <glyph glyph-name="uni023C" unicode="&#x23c;" horiz-adv-x="478" 
d="M298 89q48 0 107 38l57 -81q-75 -61 -171 -61q-26 0 -54 5l-17 -62l-50 12l17 64q-69 29 -106.5 95t-37.5 161q0 128 67 206t180 78q22 0 43 -3l15 57l50 -12l-15 -57q43 -15 79 -47l-57 -77q-23 17 -49 28l-91 -340q13 -4 33 -4zM179 262q0 -101 39 -143l88 324h-8
q-119 0 -119 -181z" />
    <glyph glyph-name="uni023D" unicode="&#x23d;" horiz-adv-x="518" 
d="M225 108h277l-15 -108h-394v312h-83v102h83v277h132v-277h87v-102h-87v-204z" />
    <glyph glyph-name="uni023E" unicode="&#x23e;" horiz-adv-x="530" 
d="M511 589h-93l-93 -215v-374h-121v93l-71 -165l-47 20l118 274v367h-192v102h394l28 66l47 -21l-19 -45h63zM325 504l37 85h-37v-85z" />
    <glyph glyph-name="uni023F" unicode="&#x23f;" horiz-adv-x="478" 
d="M363 -120q28 0 55 12l31 -79q-39 -30 -101 -30q-42 0 -74.5 18t-57.5 48.5t-48 64.5t-60 73.5t-81 67.5q-3 1 -9 5l54 72q78 -52 154 -52q43 0 67 16t24 46q0 34 -22.5 50.5t-97.5 37.5q-157 43 -157 160q0 67 56.5 110.5t147.5 43.5q107 0 188 -63l-50 -75
q-68 43 -133 43q-38 0 -59 -14.5t-21 -38.5q0 -27 22 -42t89 -34q86 -23 127.5 -61t41.5 -106q0 -78 -63 -123t-148 -45h-10q25 -19 49 -48t41.5 -43t44.5 -14z" />
    <glyph glyph-name="uni0240" unicode="&#x240;" horiz-adv-x="423" 
d="M372 -217q-35 0 -63 11t-47 29t-36.5 39.5l-36 44t-40.5 42t-55.5 33.5t-75.5 18v92l257 337h-235v100h381v-92l-282 -364q42 -13 74.5 -38t52 -51l36.5 -50t37.5 -39t45.5 -15q29 0 56 12l32 -79q-41 -30 -101 -30z" />
    <glyph glyph-name="uni0241" unicode="&#x241;" horiz-adv-x="489" 
d="M148 0v325l63 17q62 17 91 49.5t29 94.5q0 55 -29 87.5t-82 32.5q-75 0 -147 -60l-66 71q97 89 226 89q108 0 172 -59t64 -155q0 -88 -43 -134.5t-121 -73.5l-24 -8v-276h-133z" />
    <glyph glyph-name="uni0242" unicode="&#x242;" horiz-adv-x="453" 
d="M115 0v200l61 17q109 29 109 123q0 46 -26 75t-72 29q-37 0 -64 -11.5t-59 -37.5l-64 69q86 80 197 80q101 0 162 -57t61 -145q0 -140 -150 -184l-27 -7v-151h-128z" />
    <glyph glyph-name="uni0243" unicode="&#x243;" horiz-adv-x="626" 
d="M433 366q33 -6 58.5 -16.5t49.5 -29t37 -49.5t13 -72q0 -199 -289 -199h-208v172h-77v76h77v443h181q286 0 286 -176q0 -61 -37 -99.5t-91 -49.5zM288 594h-62v-187h81q55 0 87 24.5t32 72.5q0 50 -33.5 70t-104.5 20zM303 99q73 0 111.5 22t38.5 83q0 111 -136 111h-91
v-67h135v-76h-135v-73h77z" />
    <glyph glyph-name="uni0244" unicode="&#x244;" horiz-adv-x="685" 
d="M662 585v-81h-62v-278q0 -108 -67.5 -174.5t-190.5 -66.5q-124 0 -190 65.5t-66 175.5v278h-63v81h63v106h132v-106h249v106h133v-106h62zM467 233v271h-249v-271q0 -145 124 -145q125 0 125 145z" />
    <glyph glyph-name="uni0245" unicode="&#x245;" horiz-adv-x="583" 
d="M373 691l214 -691h-140l-157 590l-158 -590h-137l215 691h163z" />
    <glyph glyph-name="uni0246" unicode="&#x246;" horiz-adv-x="530" 
d="M486 99v-99h-239l-19 -72l-53 12l16 60h-110v691h294l16 62l52 -12l-13 -50h52l-14 -98h-64l-51 -193h82v-98h-108l-54 -203h213zM213 593v-193h84l51 193h-135zM213 99h4l54 203h-58v-203z" />
    <glyph glyph-name="uni0247" unicode="&#x247;" horiz-adv-x="549" 
d="M508 227h-222l-36 -137q26 -8 56 -8q64 0 132 47l53 -73q-88 -71 -196 -71q-37 0 -72 8l-17 -65l-49 12l19 69q-65 31 -99 96t-34 156q0 124 62.5 203.5t172.5 79.5q21 0 42 -3l15 57l48 -12l-15 -57q69 -25 106 -90t37 -162q0 -8 -3 -50zM281 455q-51 0 -78.5 -35
t-33.5 -114h87l40 148q-5 1 -15 1zM393 312q-2 96 -49 127l-36 -133h85v6zM206 120l29 107h-66q6 -71 37 -107z" />
    <glyph glyph-name="uni0248" unicode="&#x248;" horiz-adv-x="326" 
d="M319 394v-102h-84v-191q0 -58 -15 -102t-44.5 -73t-63 -47.5t-80.5 -33.5l-35 95q64 25 84.5 60.5t20.5 105.5v186h-85v102h85v297h133v-297h84z" />
    <glyph glyph-name="uni0249" unicode="&#x249;" horiz-adv-x="323" 
d="M161 642q-35 0 -57.5 22t-22.5 55t22.5 55.5t57.5 22.5q36 0 58.5 -22.5t22.5 -55.5t-22.5 -55t-58.5 -22zM313 301v-92h-87v-162q0 -113 -46.5 -168.5t-146.5 -95.5l-41 93q58 27 82 59t24 104v170h-87v92h87v228h128v-228h87z" />
    <glyph glyph-name="uni024A" unicode="&#x24a;" horiz-adv-x="671" 
d="M719 -97l46 -80q-54 -41 -129 -41q-83 0 -130.5 44.5t-47.5 130.5v86q-58 -58 -144 -58q-120 0 -195.5 91t-75.5 256q0 174 76.5 274t198.5 100q85 0 148 -58l6 43h118v-742q0 -67 58 -67q34 0 71 21zM336 85q72 0 122 50v423q-50 47 -117 47q-159 0 -159 -273
q0 -247 154 -247z" />
    <glyph glyph-name="uni024B" unicode="&#x24b;" horiz-adv-x="599" 
d="M582 -111l27 -89q-38 -18 -85 -18q-61 0 -95.5 35.5t-34.5 100.5v141q-54 -74 -145 -74q-97 0 -149 75t-52 204q0 124 58 202t157 78q80 0 141 -67l7 52h111v-608q0 -37 30 -37q15 0 30 5zM285 82q64 0 109 68v242q-46 56 -100 56q-52 0 -81.5 -45.5t-29.5 -137.5
q0 -183 102 -183z" />
    <glyph glyph-name="uni024C" unicode="&#x24c;" horiz-adv-x="624" 
d="M615 0h-152l-153 277h-84v-277h-132v277h-77v95h77v319h206q274 0 274 -203q0 -69 -34 -114t-106 -73zM308 372q128 0 128 116q0 56 -33.5 81.5t-105.5 25.5h-71v-223h82z" />
    <glyph glyph-name="uni024D" unicode="&#x24d;" horiz-adv-x="413" 
d="M357 543q29 0 53 -7l-22 -124q-24 6 -47 6q-45 0 -72 -30.5t-42 -93.5h85v-92h-88v-202h-128v202h-86v92h86v235h111l12 -104q19 57 55 87.5t83 30.5z" />
    <glyph glyph-name="uni024E" unicode="&#x24e;" horiz-adv-x="574" 
d="M576 691l-42 -81h42v-82h-84l-138 -266v-262h-133v261l-138 267h-81v82h39l-42 81h142l37 -81h225l37 81h136zM290 363l75 165h-150z" />
    <glyph glyph-name="uni024F" unicode="&#x24f;" horiz-adv-x="523" 
d="M513 529l-45 -138h42v-79h-67l-102 -314q-32 -98 -97 -152.5t-178 -63.5l-13 93q76 12 110.5 39t58.5 86h-44l-99 312h-68v79h43l-44 138h136l36 -138h162l37 138h132zM261 85l61 227h-120z" />
    <glyph glyph-name="uni0250" unicode="&#x250;" horiz-adv-x="546" 
d="M303 82q58 0 140 28l30 -87q-99 -38 -192 -38q-203 0 -203 182v222q0 31 -9.5 45.5t-30.5 22.5l27 85q88 -8 117 -77q52 79 158 79q79 0 125 -45t46 -118q0 -86 -62.5 -131.5t-178.5 -45.5h-66v-30q0 -51 23.5 -71.5t75.5 -20.5zM306 451q-65 0 -102 -65v-107h53
q124 0 124 92q0 80 -75 80z" />
    <glyph glyph-name="uni0251" unicode="&#x251;" horiz-adv-x="598" 
d="M516 160q0 -36 9.5 -52.5t34.5 -28.5l-38 -94q-93 19 -120 81q-60 -81 -154 -81q-97 0 -151 75.5t-54 203.5q0 124 59 202t159 78q81 0 137 -66l7 51h111v-369zM278 82q64 0 110 69v241q-46 56 -102 56q-108 0 -108 -183t100 -183z" />
    <glyph glyph-name="uni0252" unicode="&#x252;" horiz-adv-x="598" 
d="M350 544q97 0 151 -75.5t54 -203.5q0 -124 -59 -202t-159 -78q-81 0 -137 66l-7 -51h-111v369q0 36 -9.5 52.5t-34.5 28.5l38 94q93 -19 120 -81q60 81 154 81zM312 81q108 0 108 183t-100 183q-64 0 -110 -69v-241q46 -56 102 -56z" />
    <glyph glyph-name="uni0253" unicode="&#x253;" horiz-adv-x="596" 
d="M349 544q94 0 146 -73t52 -206q0 -125 -56.5 -202.5t-152.5 -77.5q-85 0 -140 69l-8 -54h-113v587q0 75 48.5 121.5t137.5 46.5q71 0 136 -31l-37 -86q-43 20 -87 20q-38 0 -54 -17.5t-16 -55.5v-116q54 75 144 75zM304 81q109 0 109 184q0 100 -27 141.5t-76 41.5
q-61 0 -105 -72v-234q37 -61 99 -61z" />
    <glyph glyph-name="uni0254" unicode="&#x254;" horiz-adv-x="480" 
d="M188 -15q-99 0 -172 59l59 77q53 -38 109 -39q118 0 118 183q0 182 -114 182q-57 0 -111 -37l-56 74q71 60 173 60q114 0 178 -74t64 -205q0 -127 -66 -203.5t-182 -76.5z" />
    <glyph glyph-name="uni0255" unicode="&#x255;" horiz-adv-x="495" 
d="M357 245q54 0 88.5 -30.5t34.5 -83.5q0 -70 -51.5 -108t-131.5 -38q-40 0 -72 8l-32 -73l-70 28l34 74q-114 70 -114 238q0 128 67 206t180 78q100 0 172 -62l-58 -78q-49 39 -106 39q-119 0 -119 -181q0 -89 30 -134q26 62 60 89.5t88 27.5zM312 83q71 0 71 50
q0 35 -35 35q-25 0 -42 -17t-38 -62q20 -6 44 -6z" />
    <glyph glyph-name="uni0256" unicode="&#x256;" horiz-adv-x="599" 
d="M654 -101l45 -76q-52 -41 -129 -41q-81 0 -128.5 45t-47.5 130v101q-54 -73 -145 -73q-97 0 -149 75t-52 204q0 124 58 202t157 78q74 0 131 -57v268l128 -14v-795q0 -67 60 -67q34 0 72 20zM285 82q64 0 109 68v242q-46 56 -100 56q-52 0 -81.5 -45.5t-29.5 -137.5
q0 -183 102 -183z" />
    <glyph glyph-name="uni0257" unicode="&#x257;" horiz-adv-x="599" 
d="M565 755q70 0 126 -38l-41 -80q-37 21 -71 21q-57 0 -57 -68v-590h-113l-9 67q-55 -82 -151 -82q-97 0 -149 75t-52 204q0 124 58 202t157 78q74 0 131 -57v97q0 80 45 125.5t126 45.5zM285 82q64 0 109 68v242q-46 56 -100 56q-52 0 -81.5 -45.5t-29.5 -137.5
q0 -183 102 -183z" />
    <glyph glyph-name="uni0258" unicode="&#x258;" horiz-adv-x="549" 
d="M271 544q117 0 176 -76t59 -207q0 -127 -66 -201.5t-186 -74.5q-108 0 -196 71l53 73q68 -47 139 -47q55 0 86.5 32.5t37.5 110.5h-333q-3 42 -3 52q0 125 62 196t171 71zM165 314v-6h209q-4 81 -28 113t-76 32q-105 0 -105 -139z" />
    <glyph glyph-name="uni0259" unicode="&#x259;" horiz-adv-x="555" 
d="M269 544q121 0 182 -74.5t61 -204.5q0 -126 -64 -203t-176 -77q-107 0 -170.5 71t-63.5 196q0 29 3 53h343q-10 144 -119 144q-73 0 -135 -47l-55 76q82 66 194 66zM272 79q52 0 80 33.5t32 109.5h-223v-8q0 -64 29.5 -99.5t81.5 -35.5z" />
    <glyph glyph-name="uni025A" unicode="&#x25a;" horiz-adv-x="802" 
d="M778 423l41 -76q-53 -37 -123 -37q-68 0 -106.5 33.5t-42.5 92.5l-1 6l-59 -33q25 -59 25 -144q0 -126 -64 -203t-176 -77q-107 0 -170.5 71t-63.5 196q0 29 3 53h343q-10 144 -119 144q-73 0 -135 -47l-55 76q82 66 194 66t175 -66l98 51h111v-64q0 -62 57 -62
q31 0 68 20zM272 79q52 0 80 33.5t32 109.5h-223v-8q0 -64 29.5 -99.5t81.5 -35.5z" />
    <glyph glyph-name="uni025B" unicode="&#x25b;" horiz-adv-x="475" 
d="M263 544q110 0 186 -55l-55 -70q-58 33 -115 33q-40 0 -62.5 -17.5t-22.5 -49.5q0 -30 23.5 -48.5t64.5 -18.5h64l-13 -88h-57q-53 0 -75.5 -18t-22.5 -56q0 -35 25.5 -55.5t73.5 -20.5q65 0 134 43l56 -75q-84 -63 -204 -63q-99 0 -159.5 42.5t-60.5 119.5
q0 117 138 135q-117 23 -117 117q0 67 54.5 106t144.5 39z" />
    <glyph glyph-name="uni025C" unicode="&#x25c;" horiz-adv-x="499" 
d="M228 544q85 0 142.5 -39t57.5 -106q0 -88 -112 -116q70 -11 104.5 -41.5t34.5 -87.5q0 -82 -65.5 -125.5t-170.5 -43.5q-123 0 -211 65l63 74q67 -44 143 -44q107 0 107 79q0 71 -113 71h-77l8 88h58q101 0 101 71q0 63 -86 63q-67 0 -126 -40l-59 71q84 61 201 61z" />
    <glyph glyph-name="uni025D" unicode="&#x25d;" horiz-adv-x="735" 
d="M712 423l41 -76q-53 -37 -123 -37q-68 0 -106.5 33.5t-42.5 92.5l-1 6l-53 -29q1 -5 1 -14q0 -88 -112 -116q70 -11 104.5 -41.5t34.5 -87.5q0 -82 -65.5 -125.5t-170.5 -43.5q-123 0 -211 65l63 74q67 -44 143 -44q107 0 107 79q0 71 -113 71h-77l8 88h58q101 0 101 71
q0 63 -86 63q-67 0 -126 -40l-59 71q84 61 201 61q109 0 165 -58l83 43h111v-64q0 -62 57 -62q31 0 68 20z" />
    <glyph glyph-name="uni025E" unicode="&#x25e;" horiz-adv-x="571" 
d="M298 -15q-125 0 -190 73.5t-65 206.5q0 127 67 203t186 76q90 0 147.5 -40t57.5 -107q0 -86 -112 -114q69 -11 104 -41.5t35 -87.5q0 -79 -63.5 -124t-166.5 -45zM296 80q101 0 101 80q0 70 -108 70h-36l8 88h17q43 0 69 17.5t26 52.5q0 30 -21.5 47t-57.5 17
q-120 0 -120 -187q0 -98 27.5 -141.5t94.5 -43.5z" />
    <glyph glyph-name="uni025F" unicode="&#x25f;" horiz-adv-x="323" 
d="M313 301v-92h-87v-162q0 -113 -46.5 -168.5t-146.5 -95.5l-41 93q58 27 82 59t24 104v170h-87v92h87v228h128v-228h87z" />
    <glyph glyph-name="uni0260" unicode="&#x260;" horiz-adv-x="599" 
d="M565 755q70 0 126 -38l-41 -80q-37 21 -71 21q-57 0 -57 -68v-580q0 -113 -61.5 -170.5t-179.5 -57.5q-108 0 -181 47l41 82q60 -32 130 -32q67 0 95 27.5t28 88.5v83q-54 -73 -145 -73q-97 0 -149 73.5t-52 195.5q0 118 58.5 194t156.5 76q74 0 131 -57v97
q0 80 45 125.5t126 45.5zM285 102q64 0 109 68v222q-46 56 -100 56q-52 0 -81.5 -44t-29.5 -129q0 -173 102 -173z" />
    <glyph glyph-name="uni0261" unicode="&#x261;" horiz-adv-x="599" 
d="M411 529h111v-519q0 -113 -61.5 -170.5t-179.5 -57.5q-108 0 -181 47l41 82q60 -32 130 -32q67 0 95 27.5t28 88.5v83q-54 -73 -145 -73q-97 0 -149 73.5t-52 195.5q0 118 58.5 194t156.5 76q77 0 141 -66zM285 102q64 0 109 68v222q-46 56 -100 56q-52 0 -81.5 -44
t-29.5 -129q0 -173 102 -173z" />
    <glyph glyph-name="uni0262" unicode="&#x262;" 
d="M305 544q111 0 195 -69l-64 -71q-61 44 -125 44q-60 0 -97 -46t-37 -135q0 -100 30 -143t88 -43q47 0 87 18v117h-81l-13 89h216v-260q-99 -58 -211 -58q-122 0 -186 70.5t-64 209.5q0 126 75.5 201.5t186.5 75.5z" />
    <glyph glyph-name="uni0263" unicode="&#x263;" horiz-adv-x="506" 
d="M505 529l-185 -455q36 -59 51.5 -99t15.5 -82q0 -52 -33.5 -81.5t-98.5 -29.5t-98 29.5t-33 81.5q0 37 15.5 77t51.5 103l-189 456h136l117 -373l118 373h132zM286 -100q0 32 -31 97q-30 -67 -30 -98q0 -32 30 -32q31 0 31 33z" />
    <glyph glyph-name="uni0264" unicode="&#x264;" horiz-adv-x="543" 
d="M459 544q46 0 89 -29l-38 -73q-20 10 -39 10q-14 0 -23 -8.5t-21 -32.5l-92 -176q33 -49 46 -79.5t13 -65.5q0 -47 -31.5 -76t-91.5 -29q-59 0 -90.5 28.5t-31.5 75.5q0 32 13 62.5t45 83.5l-91 176q-12 24 -21.5 32.5t-22.5 8.5q-19 0 -39 -10l-38 73q41 29 89 29
q50 0 79.5 -27t54.5 -87l53 -120l55 120q26 62 54.5 88t78.5 26zM298 97q0 22 -27 71q-26 -50 -26 -71q0 -29 26 -29q27 0 27 29z" />
    <glyph glyph-name="uni0265" unicode="&#x265;" horiz-adv-x="581" 
d="M376 529h128v-747l-128 14v268q-63 -79 -154 -79q-70 0 -110 43t-40 118v383h128v-362q0 -47 17 -66t49 -19q60 0 110 78v369z" />
    <glyph glyph-name="uni0266" unicode="&#x266;" horiz-adv-x="581" 
d="M359 544q70 0 110 -43t40 -118v-383h-128v363q0 47 -16.5 66t-48.5 19q-60 0 -111 -79v-369h-128v587q0 75 48.5 121.5t137.5 46.5q71 0 136 -31l-37 -86q-43 20 -87 20q-38 0 -54 -17.5t-16 -55.5v-119q64 78 154 78z" />
    <glyph glyph-name="uni0267" unicode="&#x267;" horiz-adv-x="581" 
d="M359 544q70 0 110 -43t40 -118v-426q0 -85 -47.5 -130t-128.5 -45q-77 0 -129 41l45 76q38 -20 72 -20q60 0 60 67v417q0 47 -16.5 66t-48.5 19q-60 0 -111 -79v-369h-128v587q0 75 48.5 121.5t137.5 46.5q71 0 136 -31l-37 -86q-43 20 -87 20q-38 0 -54 -17.5t-16 -55.5
v-119q64 78 154 78z" />
    <glyph glyph-name="uni0268" unicode="&#x268;" horiz-adv-x="322" 
d="M160 642q-35 0 -57.5 22t-22.5 55t22.5 55.5t57.5 22.5q36 0 58.5 -22.5t22.5 -55.5t-22.5 -55t-58.5 -22zM312 328v-92h-87v-236h-128v236h-87v92h87v201h128v-201h87z" />
    <glyph glyph-name="uni0269" unicode="&#x269;" horiz-adv-x="295" 
d="M202 -15q-61 0 -95.5 35.5t-34.5 100.5v408h128v-404q0 -37 30 -37q13 0 30 5l27 -90q-40 -18 -85 -18z" />
    <glyph glyph-name="uni026A" unicode="&#x26a;" horiz-adv-x="335" 
d="M315 435h-84v-340h84v-95h-295v95h83v340h-83v94h295v-94z" />
    <glyph glyph-name="uni026B" unicode="&#x26b;" horiz-adv-x="426" 
d="M292 286q-11 0 -16 1v-162q0 -37 30 -37q15 0 30 5l27 -90q-40 -18 -85 -18q-61 0 -95.5 35.5t-34.5 100.5v222q-9 4 -20 4q-36 0 -70 -52l-71 36q57 113 150 113h11v297l128 14v-366q13 -5 24 -5q37 0 70 48l69 -37q-55 -109 -147 -109z" />
    <glyph glyph-name="uni026C" unicode="&#x26c;" horiz-adv-x="398" 
d="M340 93l27 -90q-40 -18 -85 -18q-61 0 -95.5 35.5t-34.5 100.5v126q-75 2 -113.5 33.5t-38.5 85.5q0 51 33.5 80t84.5 29q18 0 34 -4v270l128 14v-432q25 1 73 11l12 -70q-50 -11 -85 -14v-125q0 -37 30 -37q15 0 30 5zM90 367q0 -45 62 -45v79q-12 3 -25 3
q-37 0 -37 -37z" />
    <glyph glyph-name="uni026D" unicode="&#x26d;" horiz-adv-x="282" 
d="M337 -101l45 -76q-52 -41 -129 -41q-81 0 -128.5 45t-47.5 130v784l128 14v-809q0 -67 60 -67q34 0 72 20z" />
    <glyph glyph-name="uni026E" unicode="&#x26e;" horiz-adv-x="686" 
d="M438 210q109 -5 167 -56t58 -148q0 -99 -69 -161.5t-186 -62.5q-126 0 -207 79l63 73q64 -52 137 -52q61 0 94.5 33t33.5 97q0 63 -33 89.5t-106 26.5h-87v81l187 221h-290v-305q0 -37 30 -37q15 0 30 5l27 -90q-40 -18 -85 -18q-61 0 -95.5 35.5t-34.5 100.5v620l128 14
v-226h435v-91z" />
    <glyph glyph-name="uni026F" unicode="&#x26f;" horiz-adv-x="850" 
d="M645 529h128v-529h-111l-10 69q-60 -84 -153 -84q-96 0 -128 89q-65 -89 -159 -89q-64 0 -102 43.5t-38 117.5v383h128v-363q0 -85 58 -85q31 0 53.5 19.5t46.5 60.5v368h128v-363q0 -85 58 -85q32 0 54.5 19.5t46.5 60.5v368z" />
    <glyph glyph-name="uni0270" unicode="&#x270;" horiz-adv-x="850" 
d="M645 529h128v-747l-128 14v263q-58 -74 -146 -74q-96 0 -128 89q-65 -89 -159 -89q-64 0 -102 43.5t-38 117.5v383h128v-363q0 -85 58 -85q31 0 53.5 19.5t46.5 60.5v368h128v-363q0 -85 58 -85q32 0 54.5 19.5t46.5 60.5v368z" />
    <glyph glyph-name="uni0271" unicode="&#x271;" horiz-adv-x="850" 
d="M638 544q64 0 102 -43.5t38 -117.5v-426q0 -85 -47.5 -130t-128.5 -45q-75 0 -129 41l45 77q39 -21 72 -21q60 0 60 67v417q0 85 -58 85q-31 0 -53.5 -19.5t-46.5 -60.5v-368h-128v363q0 85 -58 85q-32 0 -54.5 -19.5t-46.5 -60.5v-368h-128v529h111l10 -69q60 84 153 84
q96 0 128 -89q65 89 159 89z" />
    <glyph glyph-name="uni0272" unicode="&#x272;" horiz-adv-x="581" 
d="M359 544q71 0 110.5 -42.5t39.5 -118.5v-383h-128v363q0 47 -16.5 66t-48.5 19q-60 0 -111 -80v-411q0 -85 -47.5 -130t-128.5 -45q-77 0 -129 41l45 76q38 -20 72 -20q60 0 60 67v583h111l10 -69q65 84 161 84z" />
    <glyph glyph-name="uni0273" unicode="&#x273;" horiz-adv-x="581" 
d="M641 -101l45 -76q-52 -41 -129 -41q-81 0 -128.5 45t-47.5 130v406q0 47 -16.5 66t-48.5 19q-60 0 -111 -80v-368h-128v529h111l10 -69q65 84 161 84q71 0 110.5 -42.5t39.5 -118.5v-437q0 -67 60 -67q34 0 72 20z" />
    <glyph glyph-name="uni0274" unicode="&#x274;" horiz-adv-x="591" 
d="M514 529v-529h-157l-183 413q18 -122 18 -236v-177h-115v529h156l184 -413q-18 102 -18 188v225h115z" />
    <glyph glyph-name="uni0275" unicode="&#x275;" horiz-adv-x="584" 
d="M293 544q117 0 182.5 -74.5t65.5 -204.5q0 -127 -66.5 -203.5t-182.5 -76.5q-117 0 -183 74.5t-66 205.5q0 126 67 202.5t183 76.5zM293 449q-104 0 -117 -140h232q-12 140 -115 140zM292 81q107 0 117 148h-234q10 -148 117 -148z" />
    <glyph glyph-name="uni0276" unicode="&#x276;" horiz-adv-x="761" 
d="M734 92v-92h-356q-45 -15 -86 -15q-117 0 -183 74.5t-66 205.5q0 126 67 202.5t183 76.5q49 0 91 -15h349l-13 -91h-240q43 -53 55 -124h157v-91h-156q-10 -80 -61 -131h259zM178 265q0 -183 115 -183q53 0 83.5 45.5t30.5 137.5t-30.5 137t-83.5 45q-115 0 -115 -182z
" />
    <glyph glyph-name="uni0277" unicode="&#x277;" horiz-adv-x="763" 
d="M383 544q162 0 249.5 -80t87.5 -223q0 -128 -53.5 -192t-139.5 -64q-122 0 -145 118q-15 -62 -51 -90t-99 -28q-85 0 -137 63t-52 193q0 142 88.5 222.5t251.5 80.5zM510 82q83 0 83 163q0 206 -210 206q-113 0 -163 -54t-50 -153q0 -162 82 -162q34 0 52 21t18 81v118
l120 16v-134q0 -102 68 -102z" />
    <glyph glyph-name="uni0278" unicode="&#x278;" horiz-adv-x="647" 
d="M612 267q0 -121 -61.5 -187.5t-163.5 -75.5v-208l-128 -14v222q-103 9 -163.5 75.5t-60.5 183.5q0 121 61.5 187.5t162.5 74.5v215l128 13v-228q104 -9 164.5 -75t60.5 -183zM164 263q0 -159 104 -171v346q-104 -13 -104 -175zM378 92q105 12 105 175q0 159 -105 170
v-345z" />
    <glyph glyph-name="uni0279" unicode="&#x279;" horiz-adv-x="394" 
d="M189 529h128v-529h-111l-12 104q-19 -57 -55 -87.5t-83 -30.5q-29 0 -53 7l22 124q24 -6 47 -6q47 0 74 33.5t43 102.5v282z" />
    <glyph glyph-name="uni027A" unicode="&#x27a;" horiz-adv-x="394" 
d="M189 755l128 -14v-741h-111l-12 104q-19 -57 -55 -87.5t-83 -30.5q-29 0 -53 7l22 124q24 -6 47 -6q47 0 74 33.5t43 102.5v508z" />
    <glyph glyph-name="uni027B" unicode="&#x27b;" horiz-adv-x="394" 
d="M449 -101l45 -76q-52 -41 -129 -41q-81 0 -128.5 45t-47.5 130v133q-42 -104 -133 -104q-23 0 -53 7l22 125q22 -7 47 -7q47 0 74 33.5t43 102.5v282h128v-583q0 -67 60 -67q34 0 72 20z" />
    <glyph glyph-name="uni027C" unicode="&#x27c;" horiz-adv-x="394" 
d="M338 543q29 0 53 -7l-22 -124q-24 6 -47 6q-47 0 -74 -33.5t-43 -102.5v-486l-128 -14v747h111l12 -104q19 57 55 87.5t83 30.5z" />
    <glyph glyph-name="uni027D" unicode="&#x27d;" horiz-adv-x="394" 
d="M265 -121q34 0 72 20l45 -76q-52 -41 -129 -41q-81 0 -128.5 45t-47.5 130v572h111l12 -104q19 57 55 87.5t83 30.5q29 0 53 -7l-22 -124q-24 6 -47 6q-47 0 -74 -33.5t-43 -102.5v-336q0 -67 60 -67z" />
    <glyph glyph-name="uni027E" unicode="&#x27e;" horiz-adv-x="381" 
d="M248 546q77 0 129 -41l-45 -76q-38 20 -72 20q-60 0 -60 -67v-382h-128v371q0 85 47.5 130t128.5 45z" />
    <glyph glyph-name="uni027F" unicode="&#x27f;" horiz-adv-x="381" 
d="M133 546q81 0 128.5 -45t47.5 -130v-371h-128v382q0 67 -60 67q-34 0 -72 -20l-45 76q52 41 129 41z" />
    <glyph glyph-name="uni0280" unicode="&#x280;" horiz-adv-x="529" 
d="M373 0l-115 192h-56v-192h-125v529h169q111 0 169.5 -42.5t58.5 -125.5q0 -108 -100 -150l137 -211h-138zM202 442v-166h52q47 0 69.5 19.5t22.5 65.5q0 43 -25 62t-77 19h-42z" />
    <glyph glyph-name="uni0281" unicode="&#x281;" horiz-adv-x="529" 
d="M375 320q99 -39 99 -147q0 -173 -228 -173h-169v529h125v-191h57l114 191h138zM244 88q53 0 77.5 19t24.5 66q0 81 -92 81h-52v-166h42z" />
    <glyph glyph-name="uni0282" unicode="&#x282;" horiz-adv-x="476" 
d="M236 -15q-61 0 -105 19v-58q0 -67 66 -67q37 0 78 22l45 -78q-55 -40 -131 -40q-82 0 -128 44.5t-46 129.5v103l55 62q67 -42 152 -42q43 0 69 17t26 45q0 34 -22.5 50.5t-97.5 37.5q-157 43 -157 160q0 67 56.5 110.5t147.5 43.5q107 0 188 -63l-50 -77q-66 45 -130 45
q-40 0 -61.5 -14.5t-21.5 -38.5q0 -27 22 -42t89 -34q86 -23 127.5 -61t41.5 -106q0 -79 -62 -123.5t-151 -44.5z" />
    <glyph glyph-name="uni0283" unicode="&#x283;" horiz-adv-x="282" 
d="M248 755q70 0 126 -38l-41 -80q-37 21 -71 21q-57 0 -57 -68v-633q0 -85 -47.5 -130t-128.5 -45q-77 0 -129 41l45 76q38 -20 72 -20q60 0 60 67v638q0 80 45 125.5t126 45.5z" />
    <glyph glyph-name="uni0284" unicode="&#x284;" horiz-adv-x="323" 
d="M226 92h86v-92h-88q-10 -88 -55.5 -134.5t-134.5 -82.5l-40 89q52 24 76 50t27 78h-88v92h89v492q0 80 45 125.5t126 45.5q70 0 126 -38l-41 -80q-37 21 -71 21q-57 0 -57 -68v-498z" />
    <glyph glyph-name="uni0285" unicode="&#x285;" horiz-adv-x="464" 
d="M424 102l45 -76q-52 -41 -129 -41q-81 0 -128.5 45t-47.5 130v219q0 68 -57 68q-34 0 -71 -21l-41 80q56 38 126 38q81 0 126 -45.5t45 -125.5v-224q0 -67 60 -67q34 0 72 20z" />
    <glyph glyph-name="uni0286" unicode="&#x286;" horiz-adv-x="323" 
d="M303 658q-57 0 -57 -68v-61l1 -520v-15q56 -16 105 -40l-26 -58q-42 18 -87 31q-33 -145 -185 -145q-65 0 -102 30.5t-37 82.5q0 59 41 91.5t112 32.5q22 0 50 -2v567q0 80 45 125.5t126 45.5q70 0 126 -38l-41 -80q-37 21 -71 21zM48 -144q36 0 52 21.5t18 71.5
q-42 3 -50 3q-69 0 -69 -52q0 -44 49 -44z" />
    <glyph glyph-name="uni0287" unicode="&#x287;" horiz-adv-x="375" 
d="M370 92v-92h-83v-117l-128 -15v132h-123l13 92h110v276q0 39 -13.5 56t-42.5 17t-63 -19l-45 82q56 40 133 40q159 -2 159 -173v-279h83z" />
    <glyph glyph-name="uni0288" unicode="&#x288;" horiz-adv-x="375" 
d="M348 -101l45 -76q-52 -41 -129 -41q-81 0 -128.5 45t-47.5 130v480h-83v92h83v117l128 15v-132h123l-13 -92h-110v-491q0 -67 60 -67q34 0 72 20z" />
    <glyph glyph-name="uni0289" unicode="&#x289;" horiz-adv-x="612" 
d="M596 391v-85h-80v-306h-111l-7 74q-58 -89 -162 -89q-71 0 -109.5 43.5t-38.5 120.5v157h-80v85h80v138h128v-138h172v138h128v-138h80zM388 157v149h-172v-141q0 -45 15.5 -64t49.5 -19q61 0 107 75z" />
    <glyph glyph-name="uni028A" unicode="&#x28a;" horiz-adv-x="583" 
d="M291 -15q-114 0 -181 69.5t-67 176.5q0 127 97 206h-83v92h185v-87q-66 -77 -66 -201q0 -161 115 -161q116 0 116 161q0 122 -66 201v87h184v-92h-82q97 -79 97 -206q0 -105 -67.5 -175.5t-181.5 -70.5z" />
    <glyph glyph-name="uni028B" unicode="&#x28b;" horiz-adv-x="574" 
d="M267 -15q-84 0 -139.5 47.5t-55.5 136.5v360h128v-352q0 -95 75 -95q49 0 80 40t31 132v154q0 37 -30 37q-15 0 -28 -5l-24 88q35 16 79 16q61 0 96 -36t35 -106v-144q0 -138 -70 -205.5t-177 -67.5z" />
    <glyph glyph-name="uni028C" unicode="&#x28c;" horiz-adv-x="504" 
d="M2 0l172 529h153l175 -529h-139l-113 426l-116 -426h-132z" />
    <glyph glyph-name="uni028D" unicode="&#x28d;" horiz-adv-x="734" 
d="M11 0l115 529h160l80 -415l82 415h157l117 -529h-128l-74 435l-92 -435h-131l-84 435l-79 -435h-123z" />
    <glyph glyph-name="uni028E" unicode="&#x28e;" horiz-adv-x="506" 
d="M2 0l171 531q34 106 97.5 160.5t177.5 63.5l12 -90q-78 -11 -113 -40.5t-57 -95.5h46l169 -529h-136l-116 444l-119 -444h-132z" />
    <glyph glyph-name="uni028F" unicode="&#x28f;" horiz-adv-x="480" 
d="M487 529l-183 -334v-195h-128v194l-183 335h137l112 -249l112 249h133z" />
    <glyph glyph-name="uni0290" unicode="&#x290;" horiz-adv-x="449" 
d="M558 -100l45 -77q-54 -41 -129 -41q-80 0 -125.5 45t-45.5 130v43h-285v92l257 337h-235v100h381v-92l-256 -337h261v-154q0 -67 60 -67q33 0 72 21z" />
    <glyph glyph-name="uni0291" unicode="&#x291;" horiz-adv-x="502" 
d="M520 135q0 -133 -199 -135q-4 -31 -4 -125h-81q0 76 5 125h-223v92l257 337h-235v100h381v-89l-259 -340h94q32 142 150 142q50 0 82 -28.5t32 -78.5zM396 169q-44 0 -59 -69q49 1 69 9t20 31q0 29 -30 29z" />
    <glyph glyph-name="uni0292" unicode="&#x292;" horiz-adv-x="497" 
d="M248 210q225 -8 225 -202q0 -100 -69 -163t-186 -63q-141 0 -225 97l71 67q67 -64 148 -64q60 0 93.5 33.5t33.5 98.5q0 61 -33 87.5t-106 26.5h-86v81l186 221h-271v99h416v-91z" />
    <glyph glyph-name="uni0293" unicode="&#x293;" horiz-adv-x="497" 
d="M473 9q0 -78 -43 -133.5t-126 -78.5l25 -54l-72 -28l-31 68q-13 -1 -39 -1q-105 0 -160.5 37.5t-55.5 106.5q0 54 34.5 86t88.5 32q58 0 94 -34t71 -119q80 24 80 123q0 64 -33 91t-106 27h-86v80l187 218h-272v99h416v-91l-198 -225q110 -3 168 -54.5t58 -149.5zM66 -69
q0 -27 26 -38t91 -11q-23 50 -39 67.5t-40 17.5q-38 0 -38 -36z" />
    <glyph glyph-name="uni0294" unicode="&#x294;" horiz-adv-x="461" 
d="M131 0v351l51 15q61 19 92.5 54.5t31.5 101.5q0 65 -30 100.5t-88 35.5q-69 0 -136 -59l-65 67q92 89 215 89q109 0 173 -63.5t64 -167.5q0 -93 -44 -141.5t-119 -74.5l-17 -6v-302h-128z" />
    <glyph glyph-name="uni0295" unicode="&#x295;" horiz-adv-x="462" 
d="M331 0h-128v302l-17 6q-76 26 -120 74.5t-44 141.5q0 103 67 167t175 64q119 0 211 -89l-65 -67q-67 59 -134 59q-57 0 -89 -36t-32 -101t31.5 -100.5t93.5 -54.5l51 -15v-351z" />
    <glyph glyph-name="uni0296" unicode="&#x296;" horiz-adv-x="513" 
d="M151 740l128 13v-314l28 -5q72 -19 117 -71.5t45 -145.5q0 -103 -65.5 -167t-172.5 -64q-121 0 -215 89l66 67q65 -59 136 -59q58 0 88 35.5t30 100.5q0 67 -30 104t-93 53l-62 14v350z" />
    <glyph glyph-name="uni0297" unicode="&#x297;" horiz-adv-x="491" 
d="M314 544q92 0 161 -62l-55 -75q-51 36 -103 36q-125 0 -125 -282q0 -147 31 -210.5t91 -63.5q48 0 104 38l57 -81q-76 -60 -164 -60q-122 0 -188.5 96t-66.5 279q0 184 67.5 284.5t190.5 100.5z" />
    <glyph glyph-name="uni0298" unicode="&#x298;" horiz-adv-x="795" 
d="M398 706q158 0 256 -97t98 -263q0 -164 -98.5 -262.5t-255.5 -98.5q-159 0 -257 97t-98 264q0 162 99 261t256 99zM398 612q-107 0 -168.5 -66.5t-61.5 -199.5q0 -134 62 -200.5t168 -66.5q108 0 168.5 66t60.5 201q0 133 -61.5 199.5t-167.5 66.5zM400 419q33 0 54 -21
t21 -52q0 -30 -21 -51t-54 -21t-54 21t-21 51q0 31 21 52t54 21z" />
    <glyph glyph-name="uni0299" unicode="&#x299;" 
d="M381 289q136 -15 136 -127q0 -82 -62.5 -122t-168.5 -40h-209v523q107 21 193 21q103 0 162 -37t59 -107q0 -91 -110 -111zM269 457q-27 0 -64 -5v-134h76q83 0 83 71q0 68 -95 68zM283 89q101 0 101 81q0 37 -23 54.5t-76 17.5h-80v-153h78z" />
    <glyph glyph-name="uni029A" unicode="&#x29a;" horiz-adv-x="571" 
d="M273 -15q-103 0 -166.5 45t-63.5 124q0 57 35 87.5t104 41.5q-112 28 -112 114q0 67 57.5 107t147.5 40q119 0 186 -76t67 -203q0 -133 -65 -206.5t-190 -73.5zM275 80q67 0 94.5 43.5t27.5 141.5q0 187 -120 187q-36 0 -57.5 -17t-21.5 -47q0 -35 26 -52.5t69 -17.5h17
l8 -88h-36q-108 0 -108 -70q0 -80 101 -80z" />
    <glyph glyph-name="uni029B" unicode="&#x29b;" 
d="M544 755q69 0 125 -38l-41 -80q-37 21 -71 21q-57 0 -57 -68v-115l-58 -64q-66 37 -130 37q-62 0 -98.5 -46t-36.5 -135q0 -100 30 -143t88 -43q47 0 87 18v117h-81l-13 89h216v-260q-94 -58 -210 -58q-122 0 -186.5 71t-64.5 209q0 125 74 201t181 76q46 0 84 -15v62
q0 79 42 121.5t120 42.5z" />
    <glyph glyph-name="uni029C" unicode="&#x29c;" horiz-adv-x="589" 
d="M384 0v221h-179v-221h-128v529h128v-211h179v211h128v-529h-128z" />
    <glyph glyph-name="uni029D" unicode="&#x29d;" horiz-adv-x="325" 
d="M182 642q-35 0 -57.5 22t-22.5 55t22.5 55.5t57.5 22.5q36 0 58.5 -22.5t22.5 -55.5t-22.5 -55t-58.5 -22zM352 -46l-26 -58q-42 18 -87 31q-31 -145 -185 -145q-65 0 -102 30.5t-37 82.5q0 59 41 91.5t112 32.5q23 0 51 -2v512h128v-517v-18q56 -16 105 -40zM48 -144
q35 0 51.5 22t18.5 70q-26 4 -50 4q-69 0 -69 -52q0 -44 49 -44z" />
    <glyph glyph-name="uni029E" unicode="&#x29e;" horiz-adv-x="534" 
d="M12 0l176 233l-193 296h147l181 -289l-176 -240h-135zM329 -204v733h128v-747z" />
    <glyph glyph-name="uni029F" unicode="&#x29f;" horiz-adv-x="444" 
d="M205 529v-427h227l-14 -102h-341v529h128z" />
    <glyph glyph-name="uni02A0" unicode="&#x2a0;" horiz-adv-x="599" 
d="M565 755q70 0 126 -38l-41 -80q-37 21 -71 21q-57 0 -57 -68v-808l-128 14v263q-54 -74 -145 -74q-97 0 -149 75t-52 204q0 124 57.5 202t153.5 78q84 0 135 -64v104q0 80 45 125.5t126 45.5zM285 82q64 0 109 68v242q-46 56 -100 56q-52 0 -81.5 -45.5t-29.5 -137.5
q0 -183 102 -183z" />
    <glyph glyph-name="uni02A1" unicode="&#x2a1;" horiz-adv-x="461" 
d="M276 308l-17 -6v-83h102v-82h-102v-137h-128v137h-67v82h67v132l51 15q61 19 92.5 54.5t31.5 101.5q0 65 -30 100.5t-88 35.5q-69 0 -136 -59l-65 67q92 89 215 89q109 0 173 -63.5t64 -167.5q0 -93 -44 -141.5t-119 -74.5z" />
    <glyph glyph-name="uni02A2" unicode="&#x2a2;" horiz-adv-x="462" 
d="M276 658q-57 0 -89 -36t-32 -101t31.5 -100.5t93.5 -54.5l51 -15v-132h67v-82h-67v-137h-128v137h-102v82h102v83l-17 6q-76 26 -120 74.5t-44 141.5q0 103 67 167t175 64q119 0 211 -89l-65 -67q-67 59 -134 59z" />
    <glyph glyph-name="uni02A3" unicode="&#x2a3;" horiz-adv-x="951" 
d="M661 100h267l-13 -100h-506l-9 67q-55 -82 -151 -82q-97 0 -149 75t-52 204q0 124 58 202t155 78q76 0 133 -57v268l128 -14v-212h402v-92zM285 82q64 0 109 68v242q-46 56 -101 56q-51 0 -80.5 -45.5t-29.5 -137.5q0 -183 102 -183zM522 429v-337l262 337h-262z" />
    <glyph glyph-name="uni02A4" unicode="&#x2a4;" horiz-adv-x="989" 
d="M740 210q225 -8 225 -202q0 -100 -69 -163t-186 -63q-141 0 -225 97l71 67q67 -64 148 -64q60 0 93.5 33.5t33.5 98.5q0 61 -33 87.5t-106 26.5h-86v81l186 221h-270v-430h-113l-9 67q-55 -82 -151 -82q-97 0 -149 75t-52 204q0 124 58 202t155 78q76 0 133 -57v268
l128 -14v-212h415v-91zM285 82q64 0 109 68v242q-46 56 -101 56q-51 0 -80.5 -45.5t-29.5 -137.5q0 -183 102 -183z" />
    <glyph glyph-name="uni02A5" unicode="&#x2a5;" horiz-adv-x="1004" 
d="M1022 135q0 -133 -199 -135q-5 -39 -5 -125h-80q0 76 5 125h-334l-9 67q-55 -82 -151 -82q-97 0 -149 75t-52 204q0 124 58 202t155 78q76 0 133 -57v268l128 -14v-212h401v-89l-263 -340h98q32 142 149 142q50 0 82.5 -28.5t32.5 -78.5zM285 82q64 0 109 68v242
q-46 56 -101 56q-51 0 -80.5 -45.5t-29.5 -137.5q0 -183 102 -183zM522 429v-334l258 334h-258zM839 100q48 1 68.5 9.5t20.5 30.5q0 29 -30 29q-44 0 -59 -69z" />
    <glyph glyph-name="uni02A6" unicode="&#x2a6;" horiz-adv-x="722" 
d="M544 320q79 -25 115 -62.5t36 -96.5q0 -85 -79 -130.5t-221 -45.5q-157 0 -232 57t-75 173v222h-83v92h83v117l128 15v-132h100l-14 -92h-86v-219q0 -72 41 -104t139 -32q166 0 166 70q0 27 -18 44.5t-77 34.5q-83 26 -115 62t-32 96q0 67 53.5 111t136.5 44
q99 0 175 -62l-47 -73q-64 40 -123 40q-32 0 -52 -14.5t-20 -39.5q0 -24 20.5 -40t80.5 -35z" />
    <glyph glyph-name="uni02A7" unicode="&#x2a7;" horiz-adv-x="584" 
d="M550 755q70 0 126 -38l-41 -80q-37 21 -71 21q-57 0 -57 -68v-633q0 -85 -47.5 -130t-128.5 -45q-77 0 -129 41l45 76q38 -20 72 -20q60 0 60 67v59q-53 -20 -108 -20q-183 1 -183 180v272h-83v92h83v117l128 15v-132h163v55q0 80 45 125.5t126 45.5zM291 88q38 0 88 9
v340h-163v-270q0 -43 17.5 -61t57.5 -18z" />
    <glyph glyph-name="uni02A8" unicode="&#x2a8;" horiz-adv-x="794" 
d="M657 245q54 0 88 -30.5t34 -83.5q0 -70 -51.5 -108t-131.5 -38q-103 0 -169 57q-95 -57 -173 -57q-166 1 -166 173v279h-83v92h83v117l128 15v-132h123l-13 -92h-110v-276q0 -39 15 -56t51 -17q42 0 93 21q-33 63 -33 151q0 128 67 206t180 78q100 0 172 -62l-58 -78
q-49 39 -105 39q-120 0 -120 -181q0 -53 10 -89q82 72 169 72zM611 83q71 0 71 50q0 35 -36 35q-44 0 -120 -59q32 -26 85 -26z" />
    <glyph glyph-name="uni02A9" unicode="&#x2a9;" horiz-adv-x="878" 
d="M656 544q71 0 110.5 -42.5t39.5 -118.5v-426q0 -85 -47.5 -130t-128.5 -45q-77 0 -129 41l45 76q38 -20 72 -20q60 0 60 67v417q0 47 -16.5 66t-48.5 19q-60 0 -111 -80v-368h-128v437h-154v-437h-128v437h-86v92h86v58q0 75 48.5 121.5t137.5 46.5q70 0 137 -31l-37 -86
q-43 20 -87 20q-38 0 -54.5 -17.5t-16.5 -55.5v-56h265l10 -69q65 84 161 84z" />
    <glyph glyph-name="uni02AA" unicode="&#x2aa;" horiz-adv-x="678" 
d="M355 -15q-283 0 -283 220v536l128 14v-554q0 -63 36.5 -91t118.5 -28q170 0 170 70q0 26 -19.5 43t-82.5 36q-83 26 -115 62t-32 96q0 67 53.5 111t137.5 44q98 0 174 -62l-47 -73q-64 40 -123 40q-32 0 -51.5 -14.5t-19.5 -39.5t20.5 -40.5t80.5 -34.5
q79 -25 114.5 -62.5t35.5 -96.5q0 -86 -77 -131t-219 -45z" />
    <glyph glyph-name="uni02AB" unicode="&#x2ab;" horiz-adv-x="689" 
d="M666 100l-13 -100h-374q-37 -15 -77 -15q-61 0 -95.5 35.5t-34.5 100.5v620l128 14v-630q0 -37 30 -37q15 0 30 5l255 336h-234v100h381v-92l-260 -337h264z" />
    <glyph glyph-name="uni02AC" unicode="&#x2ac;" horiz-adv-x="468" 
d="M438 666l-64 -266h-96l-41 194l-43 -194h-98l-66 266h81l38 -203l46 203h87l42 -204l39 204h75zM438 266l-64 -266h-96l-41 194l-43 -194h-98l-66 266h81l38 -203l46 203h87l42 -204l39 204h75z" />
    <glyph glyph-name="uni02AD" unicode="&#x2ad;" horiz-adv-x="354" 
d="M30 400v157h294v-157h-80v86h-134v-86h-80zM30 0v157h294v-157h-80v86h-134v-86h-80z" />
    <glyph glyph-name="uni02AE" unicode="&#x2ae;" horiz-adv-x="690" 
d="M485 529h128v-747l-128 14v268q-63 -79 -154 -79q-70 0 -110 43t-40 118v236q0 67 -60 67q-34 0 -72 -20l-45 76q52 41 129 41q81 0 128.5 -45t47.5 -130v-204q0 -47 17 -66t49 -19q61 0 110 78v369z" />
    <glyph glyph-name="uni02AF" unicode="&#x2af;" horiz-adv-x="690" 
d="M745 -101l45 -76q-52 -41 -129 -41q-81 0 -128.5 45t-47.5 130v107q-63 -79 -154 -79q-70 0 -110 43t-40 118v236q0 67 -60 67q-34 0 -72 -20l-45 76q52 41 129 41q81 0 128.5 -45t47.5 -130v-204q0 -47 17 -66t49 -19q61 0 110 78v369h128v-583q0 -67 60 -67q34 0 72 20
z" />
    <glyph glyph-name="uni02B0" unicode="&#x2b0;" horiz-adv-x="311" 
d="M197 673q39 0 61.5 -20.5t22.5 -59.5v-193h-81v177q0 35 -29 35q-23 0 -61 -30v-182h-80v372l80 9v-144q36 36 87 36z" />
    <glyph glyph-name="uni02B1" unicode="&#x2b1;" horiz-adv-x="311" 
d="M197 673q39 0 61.5 -20.5t22.5 -59.5v-193h-81v177q0 35 -29 35q-23 0 -61 -30v-182h-80v293q0 38 28.5 62t79.5 24q42 0 81 -16l-23 -53q-27 8 -49 8q-19 0 -28 -6.5t-9 -24.5v-50q36 36 87 36z" />
    <glyph glyph-name="uni02B2" unicode="&#x2b2;" horiz-adv-x="207" 
d="M128 806q22 0 35.5 -13t13.5 -33t-13.5 -33t-35.5 -13q-21 0 -35.5 13.5t-14.5 32.5t14.5 32.5t35.5 13.5zM168 665v-239q0 -60 -28.5 -88.5t-86.5 -46.5l-23 53q33 17 45.5 32.5t12.5 48.5v240h80z" />
    <glyph glyph-name="uni02B4" unicode="&#x2b4;" horiz-adv-x="245" 
d="M135 666h80v-266h-61l-14 56q-21 -63 -77 -63q-21 0 -33 5l13 74q11 -4 27 -4q26 0 40.5 19t24.5 57v122z" />
    <glyph glyph-name="uni02B7" unicode="&#x2b7;" horiz-adv-x="468" 
d="M438 666l-64 -266h-96l-41 194l-43 -194h-98l-66 266h81l38 -203l46 203h87l42 -204l39 204h75z" />
    <glyph glyph-name="uni02B8" unicode="&#x2b8;" horiz-adv-x="351" 
d="M321 666l-102 -269q-20 -52 -55 -78t-99 -33l-10 55q42 8 61 20t33 39h-26l-93 266h84l59 -215l68 215h80z" />
    <glyph glyph-name="uni02B9" unicode="&#x2b9;" horiz-adv-x="312" 
d="M53 420l83 271h123l-117 -271h-89z" />
    <glyph glyph-name="uni02BA" unicode="&#x2ba;" horiz-adv-x="486" 
d="M53 420l83 271h123l-117 -271h-89zM227 420l83 271h123l-117 -271h-89z" />
    <glyph glyph-name="uni02BB" unicode="&#x2bb;" horiz-adv-x="220" 
d="M105 587q-32 0 -53.5 20.5t-21.5 51.5q0 28 23 78l65 136h72l-41 -154q32 -22 32 -60q0 -31 -22 -51.5t-54 -20.5z" />
    <glyph glyph-name="uni02BC" unicode="&#x2bc;" horiz-adv-x="236" 
d="M120 760q32 0 53.5 -20.5t21.5 -51.5q0 -28 -23 -78l-65 -136h-72l41 154q-32 22 -32 60q0 31 22 51.5t54 20.5z" />
    <glyph glyph-name="uni02BF" unicode="&#x2bf;" horiz-adv-x="188" 
d="M158 613v68q-49 0 -49 52q0 53 49 53v67q-57 0 -92.5 -34.5t-35.5 -85.5q0 -50 35.5 -85t92.5 -35z" />
    <glyph glyph-name="uni02C0" unicode="&#x2c0;" horiz-adv-x="279" 
d="M84 608v97q38 3 54.5 11t16.5 29q0 33 -42 33q-28 0 -59 -13l-24 59q43 25 102 25q56 0 86.5 -26t30.5 -70q0 -76 -83 -90v-55h-82z" />
    <glyph glyph-name="circumflex" unicode="&#x2c6;" horiz-adv-x="418" 
d="M79 627l-49 55l138 126h81l139 -126l-49 -55l-130 88z" />
    <glyph glyph-name="caron" unicode="&#x2c7;" horiz-adv-x="418" 
d="M339 800l49 -56l-139 -125h-80l-139 125l49 56l130 -88z" />
    <glyph glyph-name="uni02C8" unicode="&#x2c8;" horiz-adv-x="175" 
d="M30 623v248h115v-248h-115z" />
    <glyph glyph-name="uni02CA" unicode="&#x2ca;" horiz-adv-x="322" 
d="M240 820l52 -100l-226 -90l-36 65z" />
    <glyph glyph-name="uni02CB" unicode="&#x2cb;" horiz-adv-x="322" 
d="M82 820l210 -125l-37 -65l-225 90z" />
    <glyph glyph-name="uni02CC" unicode="&#x2cc;" horiz-adv-x="175" 
d="M30 -317v248h115v-248h-115z" />
    <glyph glyph-name="uni02CE" unicode="&#x2ce;" horiz-adv-x="322" 
d="M80 -44l212 -117l-33 -66l-229 83z" />
    <glyph glyph-name="uni02CF" unicode="&#x2cf;" horiz-adv-x="322" 
d="M242 -44l50 -100l-229 -83l-33 66z" />
    <glyph glyph-name="uni02D0" unicode="&#x2d0;" horiz-adv-x="238" 
d="M106 328l-67 165h159l-68 -165h-24zM106 165h24l68 -165h-159z" />
    <glyph glyph-name="uni02D1" unicode="&#x2d1;" horiz-adv-x="238" 
d="M106 328l-67 165h159l-68 -165h-24z" />
    <glyph glyph-name="uni02D4" unicode="&#x2d4;" horiz-adv-x="423" 
d="M368 258v-74h-313v74h114v153h84v-153h115z" />
    <glyph glyph-name="uni02D6" unicode="&#x2d6;" horiz-adv-x="475" 
d="M287 481v-137h134v-91h-134v-138h-99v138h-134v91h134v137h99z" />
    <glyph glyph-name="uni02D7" unicode="&#x2d7;" horiz-adv-x="470" 
d="M54 253v92h361v-92h-361z" />
    <glyph glyph-name="breve" unicode="&#x2d8;" horiz-adv-x="386" 
d="M192 637q-69 0 -112.5 43t-49.5 112l75 14q20 -77 87 -77q69 0 88 77l76 -14q-6 -69 -50.5 -112t-113.5 -43z" />
    <glyph glyph-name="dotaccent" unicode="&#x2d9;" horiz-adv-x="221" 
d="M110 797q36 0 58.5 -22.5t22.5 -55.5t-22.5 -55t-58.5 -22q-35 0 -57.5 22t-22.5 55t22.5 55.5t57.5 22.5z" />
    <glyph glyph-name="ring" unicode="&#x2da;" horiz-adv-x="315" 
d="M158 853q57 0 92 -34.5t35 -85.5q0 -50 -35.5 -85t-91.5 -35q-57 0 -92.5 35t-35.5 85q0 51 35.5 85.5t92.5 34.5zM158 786q-23 0 -36 -14t-13 -39q0 -52 49 -52q22 0 35 13.5t13 38.5t-13 39t-35 14z" />
    <glyph glyph-name="ogonek" unicode="&#x2db;" horiz-adv-x="279" 
d="M262 43l20 -43q-121 -48 -121 -108q0 -46 55 -46q27 0 61 7l-10 -85q-37 -7 -67 -7q-61 0 -99 30t-38 79q0 116 199 173z" />
    <glyph glyph-name="tilde" unicode="&#x2dc;" horiz-adv-x="417" 
d="M267 644q-31 0 -66 23.5t-49 23.5q-17 0 -28.5 -10.5t-24.5 -34.5l-69 34q44 104 120 104q32 0 67 -23t49 -23q26 0 53 43l68 -34q-43 -103 -120 -103z" />
    <glyph glyph-name="hungarumlaut" unicode="&#x2dd;" horiz-adv-x="401" 
d="M113 847l94 -46l-105 -167l-72 30zM278 847l93 -48l-115 -170l-70 32z" />
    <glyph glyph-name="uni02DE" unicode="&#x2de;" horiz-adv-x="407" 
d="M301 310q-68 0 -106.5 33.5t-42.5 92.5l-1 6l-118 -65v93l114 59h111v-64q0 -62 57 -62q31 0 68 20l41 -76q-53 -37 -123 -37z" />
    <glyph glyph-name="uni02E0" unicode="&#x2e0;" horiz-adv-x="354" 
d="M321 665l-104 -228q36 -50 36 -86q0 -28 -19.5 -44.5t-55.5 -16.5q-35 0 -55 16t-20 45q0 41 37 87l-107 227h85l60 -182l60 182h83zM191 355q0 16 -13 43q-14 -28 -14 -43q0 -14 14 -14q13 0 13 14z" />
    <glyph glyph-name="uni02E1" unicode="&#x2e1;" horiz-adv-x="186" 
d="M108 391q-78 0 -78 75v306l80 8v-311q0 -13 15 -13l15 3l16 -59q-25 -9 -48 -9z" />
    <glyph glyph-name="uni02E2" unicode="&#x2e2;" horiz-adv-x="307" 
d="M163 673q60 0 107 -34l-33 -45q-38 21 -72 21q-41 0 -41 -20q0 -10 11 -15.5t52 -15.5q51 -12 72.5 -31.5t21.5 -54.5q0 -37 -35 -62t-92 -25q-69 0 -122 39l39 43q42 -24 83 -24q46 0 46 25q0 13 -11 19.5t-54 16.5q-89 21 -89 82q0 35 32 58t85 23z" />
    <glyph glyph-name="uni02E3" unicode="&#x2e3;" horiz-adv-x="348" 
d="M222 542l96 -142h-89l-57 100l-56 -100h-86l96 140l-86 125h88l47 -85l45 85h84z" />
    <glyph glyph-name="uni02E4" unicode="&#x2e4;" horiz-adv-x="327" 
d="M215 400h-82v144l-16 5q-45 14 -66 38t-21 70q0 56 40.5 89t105.5 33q64 0 121 -44l-41 -44q-41 26 -75 26q-32 0 -51 -15.5t-19 -44.5q0 -31 17.5 -45.5t56.5 -25.5l30 -8v-178z" />
    <glyph glyph-name="uni02E5" unicode="&#x2e5;" horiz-adv-x="358" 
d="M233 0v607h-203v84h298v-691h-95z" />
    <glyph glyph-name="uni02E6" unicode="&#x2e6;" horiz-adv-x="358" 
d="M233 691h95v-691h-95v454h-203v84h203v153z" />
    <glyph glyph-name="uni02E7" unicode="&#x2e7;" horiz-adv-x="358" 
d="M233 691h95v-691h-95v304h-203v84h203v303z" />
    <glyph glyph-name="uni02E8" unicode="&#x2e8;" horiz-adv-x="358" 
d="M233 691h95v-691h-95v154h-203v84h203v453z" />
    <glyph glyph-name="uni02E9" unicode="&#x2e9;" horiz-adv-x="358" 
d="M233 691h95v-691h-298v84h203v607z" />
    <glyph glyph-name="uni02EE" unicode="&#x2ee;" horiz-adv-x="394" 
d="M112 754q29 0 48 -18.5t19 -46.5q0 -26 -20 -70l-59 -122h-65l37 138q-28 20 -28 54q0 28 19.5 46.5t48.5 18.5zM286 754q28 0 47.5 -18.5t19.5 -46.5q0 -27 -21 -70l-58 -122h-65l37 138q-29 21 -29 54q0 28 20 46.5t49 18.5z" />
    <glyph glyph-name="gravecomb" unicode="&#x300;" horiz-adv-x="0" 
d="M-240 820l210 -125l-37 -65l-225 90z" />
    <glyph glyph-name="acutecomb" unicode="&#x301;" horiz-adv-x="0" 
d="M-82 820l52 -100l-226 -90l-36 65z" />
    <glyph glyph-name="uni0302" unicode="&#x302;" horiz-adv-x="0" 
d="M-339 627l-49 55l138 126h81l139 -126l-49 -55l-130 88z" />
    <glyph glyph-name="tildecomb" unicode="&#x303;" horiz-adv-x="0" 
d="M-150 644q-31 0 -66 23.5t-49 23.5q-17 0 -28.5 -10.5t-24.5 -34.5l-69 34q44 104 120 104q32 0 66.5 -23t49.5 -23q26 0 53 43l68 -34q-43 -103 -120 -103z" />
    <glyph glyph-name="uni0304" unicode="&#x304;" horiz-adv-x="0" 
d="M-30 661h-291v91h291v-91z" />
    <glyph glyph-name="uni0306" unicode="&#x306;" horiz-adv-x="0" 
d="M-194 637q-69 0 -112.5 43t-49.5 112l75 14q20 -77 87 -77q69 0 88 77l76 -14q-6 -69 -50.5 -112t-113.5 -43z" />
    <glyph glyph-name="uni0307" unicode="&#x307;" horiz-adv-x="0" 
d="M-111 797q36 0 58.5 -22.5t22.5 -55.5t-22.5 -55t-58.5 -22q-35 0 -57.5 22t-22.5 55t22.5 55.5t57.5 22.5z" />
    <glyph glyph-name="uni0308" unicode="&#x308;" horiz-adv-x="0" 
d="M-321 785q29 0 49 -20t20 -49t-20 -49t-49 -20q-30 0 -50.5 20t-20.5 49t20.5 49t50.5 20zM-100 785q30 0 50 -20t20 -49t-20 -49t-50 -20q-29 0 -49.5 20t-20.5 49t20.5 49t49.5 20z" />
    <glyph glyph-name="hookabovecomb" unicode="&#x309;" horiz-adv-x="0" 
d="M-192 608v97q38 3 54.5 11t16.5 29q0 33 -42 33q-28 0 -59 -13l-24 59q43 25 102 25q56 0 86.5 -26t30.5 -70q0 -76 -83 -90v-55h-82z" />
    <glyph glyph-name="uni030A" unicode="&#x30a;" horiz-adv-x="0" 
d="M-157 853q57 0 92 -34.5t35 -85.5q0 -50 -35.5 -85t-91.5 -35q-57 0 -92.5 35t-35.5 85q0 51 35.5 85.5t92.5 34.5zM-157 786q-23 0 -36 -14t-13 -39q0 -52 49 -52q22 0 35 13.5t13 38.5t-13 39t-35 14z" />
    <glyph glyph-name="uni030B" unicode="&#x30b;" horiz-adv-x="0" 
d="M-288 847l94 -46l-105 -167l-72 30zM-123 847l93 -48l-115 -170l-70 32z" />
    <glyph glyph-name="uni030C" unicode="&#x30c;" horiz-adv-x="0" 
d="M-79 800l49 -56l-139 -125h-80l-139 125l49 56l130 -88z" />
    <glyph glyph-name="uni030D" unicode="&#x30d;" horiz-adv-x="0" 
d="M-145 623v248h115v-248h-115z" />
    <glyph glyph-name="uni030F" unicode="&#x30f;" horiz-adv-x="0" 
d="M-278 847l92 -186l-71 -32l-114 170zM-113 847l83 -183l-72 -30l-105 167z" />
    <glyph glyph-name="uni0311" unicode="&#x311;" horiz-adv-x="0" 
d="M-194 776q69 0 113.5 -43t50.5 -112l-76 -14q-19 77 -88 77q-67 0 -87 -77l-75 14q6 69 49.5 112t112.5 43z" />
    <glyph glyph-name="uni0312" unicode="&#x312;" horiz-adv-x="0" 
d="M-103 580q-29 0 -49 19.5t-20 48.5q0 26 27 81l44 91h67l-28 -116q29 -22 29 -56q0 -29 -20 -48.5t-50 -19.5z" />
    <glyph glyph-name="uni0313" unicode="&#x313;" horiz-adv-x="0" 
d="M-99 823q29 0 49 -19.5t20 -48.5q0 -26 -27 -81l-44 -91h-67l28 116q-29 22 -29 56q0 29 20 48.5t50 19.5z" />
    <glyph glyph-name="uni0316" unicode="&#x316;" horiz-adv-x="0" 
d="M-242 -44l212 -117l-33 -66l-229 83z" />
    <glyph glyph-name="uni0317" unicode="&#x317;" horiz-adv-x="0" 
d="M-80 -44l50 -100l-229 -83l-33 66z" />
    <glyph glyph-name="uni0318" unicode="&#x318;" horiz-adv-x="0" 
d="M-111 -60h81v-294h-81v110h-130v73h130v111z" />
    <glyph glyph-name="uni0319" unicode="&#x319;" horiz-adv-x="0" 
d="M-161 -60v-111h130v-73h-130v-110h-81v294h81z" />
    <glyph glyph-name="uni031A" unicode="&#x31a;" horiz-adv-x="0" 
d="M-228 791h198v-196h-80v123h-118v73z" />
    <glyph glyph-name="uni031B" unicode="&#x31b;" horiz-adv-x="0" 
d="M-168 405l-10 67q54 4 54 52q0 34 -14 69l89 15q19 -36 19 -85q0 -57 -36 -86.5t-102 -31.5z" />
    <glyph glyph-name="uni031C" unicode="&#x31c;" horiz-adv-x="0" 
d="M-30 -297v68q-49 0 -49 52q0 53 49 53v67q-57 0 -92.5 -34.5t-35.5 -85.5q0 -50 35.5 -85t92.5 -35z" />
    <glyph glyph-name="uni031D" unicode="&#x31d;" horiz-adv-x="0" 
d="M-31 -242v-74h-313v74h114v153h84v-153h115z" />
    <glyph glyph-name="uni031E" unicode="&#x31e;" horiz-adv-x="0" 
d="M-31 -163h-115v-153h-84v153h-114v74h313v-74z" />
    <glyph glyph-name="uni031F" unicode="&#x31f;" horiz-adv-x="0" 
d="M-121 -80v-88h91v-77h-91v-86h-87v86h-92v77h92v88h87z" />
    <glyph glyph-name="uni0320" unicode="&#x320;" horiz-adv-x="0" 
d="M-300 -245v77h270v-77h-270z" />
    <glyph glyph-name="uni0321" unicode="&#x321;" horiz-adv-x="0" 
d="M-206 -218q-77 0 -129 41l45 76q38 -20 72 -20q60 0 60 67v55h128v-44q0 -85 -47.5 -130t-128.5 -45z" />
    <glyph glyph-name="dotbelowcomb" unicode="&#x323;" horiz-adv-x="0" 
d="M-110 -221q-36 0 -58.5 22.5t-22.5 55.5t22.5 55t58.5 22q35 0 57.5 -22t22.5 -55t-22.5 -55.5t-57.5 -22.5z" />
    <glyph glyph-name="uni0324" unicode="&#x324;" horiz-adv-x="0" 
d="M-321 -73q29 0 49 -20t20 -49t-20 -49t-49 -20q-30 0 -50.5 20t-20.5 49t20.5 49t50.5 20zM-100 -73q30 0 50 -20t20 -49t-20 -49t-50 -20q-29 0 -49.5 20t-20.5 49t20.5 49t49.5 20z" />
    <glyph glyph-name="uni0325" unicode="&#x325;" horiz-adv-x="0" 
d="M-157 -57q57 0 92 -34.5t35 -85.5q0 -50 -35.5 -85t-91.5 -35q-57 0 -92.5 35t-35.5 85q0 51 35.5 85.5t92.5 34.5zM-157 -124q-23 0 -36 -14t-13 -39q0 -52 49 -52q22 0 35 13.5t13 38.5t-13 39t-35 14z" />
    <glyph glyph-name="uni0326" unicode="&#x326;" horiz-adv-x="0" 
d="M-99 -72q29 0 49 -19.5t20 -48.5q0 -26 -27 -81l-44 -91h-67l28 116q-29 22 -29 56q0 29 20 48.5t50 19.5z" />
    <glyph glyph-name="uni0327" unicode="&#x327;" horiz-adv-x="0" 
d="M-129 16v-68q99 -10 99 -92q0 -50 -38 -79.5t-99 -29.5q-63 0 -103 28l31 63q30 -16 63 -16q49 0 49 34q0 38 -91 38l15 122h74z" />
    <glyph glyph-name="uni0328" unicode="&#x328;" horiz-adv-x="0" 
d="M-50 43l20 -43q-121 -48 -121 -108q0 -46 55 -46q27 0 61 7l-10 -85q-37 -7 -67 -7q-61 0 -99 30t-38 79q0 116 199 173z" />
    <glyph glyph-name="uni0329" unicode="&#x329;" horiz-adv-x="0" 
d="M-153 -317v248h115v-248h-115z" />
    <glyph glyph-name="uni032A" unicode="&#x32a;" horiz-adv-x="0" 
d="M-324 -246v157h294v-157h-80v86h-134v-86h-80z" />
    <glyph glyph-name="uni032B" unicode="&#x32b;" horiz-adv-x="0" 
d="M-87 -58l57 -5q-5 -68 -34 -109t-75 -41q-66 0 -93 77q-29 -77 -94 -77q-47 0 -75.5 41t-32.5 109l56 5q10 -67 54 -67t54 67h75q11 -67 54 -67q46 0 54 67z" />
    <glyph glyph-name="uni032C" unicode="&#x32c;" horiz-adv-x="0" 
d="M-79 -66l49 -56l-139 -120h-80l-139 120l49 56l130 -83z" />
    <glyph glyph-name="uni032D" unicode="&#x32d;" horiz-adv-x="0" 
d="M-339 -247l-49 56l138 126h81l139 -126l-49 -56l-130 88z" />
    <glyph glyph-name="uni032F" unicode="&#x32f;" horiz-adv-x="0" 
d="M-194 -48q69 0 113.5 -43t50.5 -112l-76 -14q-19 77 -88 77q-67 0 -87 -77l-75 14q6 69 49.5 112t112.5 43z" />
    <glyph glyph-name="uni0330" unicode="&#x330;" horiz-adv-x="0" 
d="M-150 -199q-31 0 -66 23.5t-49 23.5q-17 0 -28.5 -10.5t-24.5 -34.5l-69 34q44 104 120 104q32 0 66.5 -23t49.5 -23q26 0 53 43l68 -34q-43 -103 -120 -103z" />
    <glyph glyph-name="uni0331" unicode="&#x331;" horiz-adv-x="0" 
d="M-30 -182h-291v91h291v-91z" />
    <glyph glyph-name="uni0332" unicode="&#x332;" horiz-adv-x="0" 
d="M-29 -182h-437v91h437v-91z" />
    <glyph glyph-name="uni0334" unicode="&#x334;" horiz-adv-x="0" 
d="M-178 240q-36 0 -67 15t-55 30.5t-42 15.5q-36 0 -70 -52l-71 36q57 113 150 113q45 0 94 -30t69 -30q37 0 70 48l69 -37q-55 -109 -147 -109z" />
    <glyph glyph-name="uni0335" unicode="&#x335;" horiz-adv-x="0" 
d="M-353 262v102h302v-102h-302z" />
    <glyph glyph-name="uni0336" unicode="&#x336;" horiz-adv-x="0" 
d="M-771 262v102h741v-102h-741z" />
    <glyph glyph-name="uni0339" unicode="&#x339;" horiz-adv-x="0" 
d="M-158 -296q57 0 92.5 35t35.5 85q0 51 -35.5 85.5t-92.5 34.5v-67q49 0 49 -53q0 -52 -49 -52v-68z" />
    <glyph glyph-name="uni033A" unicode="&#x33a;" horiz-adv-x="0" 
d="M-324 -89h80v-86h134v86h80v-157h-294v157z" />
    <glyph glyph-name="uni033B" unicode="&#x33b;" horiz-adv-x="0" 
d="M-324 -246v181h294v-181h-294zM-256 -187h157v63h-157v-63z" />
    <glyph glyph-name="uni033C" unicode="&#x33c;" horiz-adv-x="0" 
d="M-139 -58q46 0 75 -41t34 -109l-57 -5q-8 67 -54 67q-43 0 -54 -67h-75q-10 67 -54 67t-54 -67l-56 5q4 68 32.5 109t75.5 41q65 0 94 -77q27 77 93 77z" />
    <glyph glyph-name="uni033D" unicode="&#x33d;" horiz-adv-x="0" 
d="M-126 728l96 -128h-89l-57 90l-56 -90h-86l96 126l-86 112h88l47 -76l45 76h84z" />
    <glyph glyph-name="uni0342" unicode="&#x342;" horiz-adv-x="0" 
d="M-150 644q-31 0 -66 23.5t-49 23.5q-17 0 -28.5 -10.5t-24.5 -34.5l-69 34q44 104 120 104q32 0 66.5 -23t49.5 -23q26 0 53 43l68 -34q-43 -103 -120 -103z" />
    <glyph glyph-name="uni0345" unicode="&#x345;" horiz-adv-x="0" 
d="M-136 -197q-58 0 -90.5 32t-32.5 85v39h97v-37q0 -41 41 -41q26 0 53 16l38 -58q-48 -36 -106 -36z" />
    <glyph glyph-name="uni035C" unicode="&#x35c;" horiz-adv-x="0" 
d="M338 -91q-161 -128 -339 -128t-338 129l45 63q136 -80 293 -80q159 0 293 80z" />
    <glyph glyph-name="uni0361" unicode="&#x361;" horiz-adv-x="0" 
d="M338 676l-46 -64q-134 80 -293 80q-157 0 -293 -80l-45 63q160 129 338 129t339 -128z" />
    <glyph glyph-name="uni0370" unicode="&#x370;" horiz-adv-x="522" 
d="M505 309h-292v-309h-132v691h132v-277h292v-105z" />
    <glyph glyph-name="uni0371" unicode="&#x371;" horiz-adv-x="477" 
d="M456 322v-102h-246v-220h-128v371q0 80 -23 155l117 16q34 -66 34 -200v-20h246z" />
    <glyph glyph-name="uni0372" unicode="&#x372;" horiz-adv-x="621" 
d="M12 691h597v-302h-113v198h-119v-587h-133v587h-119v-198h-113v302z" />
    <glyph glyph-name="uni0373" unicode="&#x373;" horiz-adv-x="497" 
d="M495 529v-98h-180v-635l-128 -14v648h-82q-51 0 -89 -11l-23 91q47 19 129 19h373z" />
    <glyph glyph-name="uni0374" unicode="&#x374;" horiz-adv-x="312" 
d="M53 420l83 271h123l-117 -271h-89z" />
    <glyph glyph-name="uni0375" unicode="&#x375;" horiz-adv-x="312" 
d="M259 138l-83 -271h-123l117 271h89z" />
    <glyph glyph-name="uni0376" unicode="&#x376;" horiz-adv-x="672" 
d="M591 691v-691h-131v294q0 128 19 261l-235 -555h-163v691h131v-297q0 -125 -19 -258l239 555h159z" />
    <glyph glyph-name="uni0377" unicode="&#x377;" horiz-adv-x="594" 
d="M512 162q0 -36 9.5 -53.5t34.5 -29.5l-39 -94q-65 15 -96.5 53t-31.5 106q0 44 11 136.5t19 132.5l-203 -413h-139v529h124v-212q0 -120 -17 -186l198 398h130v-367z" />
    <glyph glyph-name="uni037A" unicode="&#x37a;" horiz-adv-x="331" 
d="M153 -197q-58 0 -90.5 32t-32.5 85v39h97v-37q0 -41 41 -41q26 0 53 16l38 -58q-48 -36 -106 -36z" />
    <glyph glyph-name="uni037B" unicode="&#x37b;" horiz-adv-x="512" 
d="M210 544q121 0 190 -75.5t69 -208.5q0 -128 -72 -201.5t-194 -73.5q-104 0 -187 61l57 79q66 -36 122 -36q138 0 138 173q0 181 -129 181q-70 0 -131 -38l-57 77q87 62 194 62z" />
    <glyph glyph-name="uni037C" unicode="&#x37c;" horiz-adv-x="512" 
d="M309 544q105 0 187 -62l-57 -77q-61 38 -121 38q-65 0 -102 -45t-37 -136q0 -173 138 -173q56 0 122 36l57 -79q-83 -61 -187 -61q-122 0 -194 73.5t-72 201.5q0 127 73 205.5t193 78.5zM328 336q33 0 54 -21t21 -52q0 -30 -21 -51t-54 -21t-54 21t-21 51q0 31 21 52
t54 21z" />
    <glyph glyph-name="uni037D" unicode="&#x37d;" horiz-adv-x="512" 
d="M210 544q121 0 190 -75.5t69 -208.5q0 -128 -72 -201.5t-194 -73.5q-104 0 -187 61l57 79q66 -36 122 -36q138 0 138 173q0 181 -129 181q-70 0 -131 -38l-57 77q87 62 194 62zM186 336q33 0 54 -21t21 -52q0 -30 -21 -51t-54 -21t-54 21t-21 51q0 31 21 52t54 21z" />
    <glyph glyph-name="uni037E" unicode="&#x37e;" horiz-adv-x="240" 
d="M119 503q34 0 58 -23.5t24 -57.5q0 -33 -24 -57t-58 -24q-33 0 -56.5 24t-23.5 57q0 34 23 57.5t57 23.5zM119 147q35 0 58.5 -23t23.5 -58q0 -32 -26 -90l-65 -148h-78l41 172q-34 23 -34 67q0 34 23 57t57 23z" />
    <glyph glyph-name="uni037F" unicode="&#x37f;" horiz-adv-x="312" 
d="M235 691v-590q0 -58 -15 -102t-44.5 -73t-63 -47.5t-80.5 -33.5l-35 95q64 25 84.5 60.5t20.5 105.5v585h133z" />
    <glyph glyph-name="tonos" unicode="&#x384;" horiz-adv-x="190" 
d="M32 823l128 -10l-41 -217h-85z" />
    <glyph glyph-name="dieresistonos" unicode="&#x385;" horiz-adv-x="439" 
d="M182 932l111 -9l-35 -187h-74zM101 750q29 0 49 -20t20 -49t-20 -49.5t-49 -20.5q-31 0 -51 20.5t-20 49.5t20.5 49t50.5 20zM339 750q29 0 49.5 -20t20.5 -49t-20.5 -49.5t-49.5 -20.5q-30 0 -50 20.5t-20 49.5t20 49t50 20z" />
    <glyph glyph-name="Alphatonos" unicode="&#x386;" horiz-adv-x="648" 
d="M160 475h-85l-2 226l128 -10zM513 0l-43 160h-229l-43 -160h-137l215 691h163l214 -691h-140zM267 260h176l-88 330z" />
    <glyph glyph-name="anoteleia" unicode="&#x387;" horiz-adv-x="240" 
d="M119 390q34 0 58 -23.5t24 -57.5q0 -33 -24 -57t-58 -24q-33 0 -56.5 24t-23.5 57q0 34 23 57.5t57 23.5z" />
    <glyph glyph-name="Epsilontonos" unicode="&#x388;" horiz-adv-x="677" 
d="M65 701l128 -10l-41 -216h-85zM629 691l-14 -98h-255v-193h222v-98h-222v-203h273v-99h-405v691h401z" />
    <glyph glyph-name="Etatonos" unicode="&#x389;" horiz-adv-x="819" 
d="M65 701l128 -10l-41 -216h-85zM606 0v309h-246v-309h-132v691h132v-277h246v277h133v-691h-133z" />
    <glyph glyph-name="Iotatonos" unicode="&#x38a;" horiz-adv-x="441" 
d="M65 701l128 -10l-41 -216h-85zM360 691v-691h-132v691h132z" />
    <glyph glyph-name="Omicrontonos" unicode="&#x38c;" horiz-adv-x="803" 
d="M457 706q140 0 221 -94.5t81 -265.5q0 -170 -81 -265.5t-221 -95.5t-221.5 94.5t-81.5 265.5q0 169 81.5 265t221.5 96zM61 701l128 -10l-41 -216h-85zM457 605q-164 0 -164 -260q0 -259 164 -259q163 0 163 260q0 135 -41.5 197t-121.5 62z" />
    <glyph glyph-name="Upsilontonos" unicode="&#x38e;" horiz-adv-x="792" 
d="M65 701l128 -10l-41 -216h-85zM794 691l-222 -429v-262h-134v261l-222 430h146l146 -321l146 321h140z" />
    <glyph glyph-name="Omegatonos" unicode="&#x38f;" horiz-adv-x="814" 
d="M469 706q140 0 221 -92t81 -247q0 -100 -31 -163t-102 -103h112v-101h-236v98q65 25 91.5 88t26.5 181q0 238 -163 238q-79 0 -121.5 -59.5t-42.5 -179.5t27 -181t91 -87v-98h-236v101h108q-129 70 -129 265q0 153 82.5 246.5t220.5 93.5zM56 701l128 -10l-41 -216h-85z
" />
    <glyph glyph-name="iotadieresistonos" unicode="&#x390;" horiz-adv-x="282" 
d="M98 932l111 -9l-35 -187h-74zM17 750q29 0 49 -20t20 -49t-20 -49.5t-49 -20.5q-31 0 -51 20.5t-20 49.5t20.5 49t50.5 20zM255 750q29 0 49.5 -20t20.5 -49t-20.5 -49.5t-49.5 -20.5q-30 0 -50 20.5t-20 49.5t20 49t50 20zM200 529v-367q0 -37 9.5 -54t34.5 -29l-38 -94
q-70 15 -102 52t-32 109v383h128z" />
    <glyph glyph-name="Alpha" unicode="&#x391;" horiz-adv-x="583" 
d="M447 0l-43 160h-229l-43 -160h-137l215 691h163l214 -691h-140zM201 260h176l-88 330z" />
    <glyph glyph-name="Beta" unicode="&#x392;" horiz-adv-x="613" 
d="M420 366q33 -6 58.5 -16.5t49.5 -29t37 -49.5t13 -72q0 -199 -289 -199h-208v691h181q286 0 286 -176q0 -61 -37 -99.5t-91 -49.5zM275 594h-62v-187h81q55 0 87 24.5t32 72.5q0 50 -33.5 70t-104.5 20zM290 99q73 0 111.5 22t38.5 83q0 111 -136 111h-91v-216h77z" />
    <glyph glyph-name="Gamma" unicode="&#x393;" horiz-adv-x="509" 
d="M504 691l-16 -107h-275v-584h-132v691h423z" />
    <glyph glyph-name="uni0394" unicode="&#x394;" horiz-adv-x="592" 
d="M378 691l218 -691h-601l220 691h163zM294 589l-137 -488h274z" />
    <glyph glyph-name="Epsilon" unicode="&#x395;" horiz-adv-x="530" 
d="M482 691l-14 -98h-255v-193h222v-98h-222v-203h273v-99h-405v691h401z" />
    <glyph glyph-name="Zeta" unicode="&#x396;" horiz-adv-x="534" 
d="M496 691v-102l-319 -481h322l-14 -108h-462v101l325 485h-292v105h440z" />
    <glyph glyph-name="Eta" unicode="&#x397;" horiz-adv-x="672" 
d="M459 0v309h-246v-309h-132v691h132v-277h246v277h133v-691h-133z" />
    <glyph glyph-name="Theta" unicode="&#x398;" horiz-adv-x="691" 
d="M346 706q140 0 221 -94.5t81 -265.5q0 -170 -81 -265.5t-221 -95.5t-221.5 94.5t-81.5 265.5q0 169 81.5 265t221.5 96zM346 605q-168 0 -168 -260q0 -259 168 -259q83 0 125.5 62t42.5 198q0 259 -168 259zM455 394v-84h-219v84h219z" />
    <glyph glyph-name="Iota" unicode="&#x399;" horiz-adv-x="294" 
d="M213 691v-691h-132v691h132z" />
    </font>
</defs>
</svg>
